<?xml version="1.0" standalone="no"?>
<!DOCTYPE svg PUBLIC "-//W3C//DTD SVG 1.1//EN" "http://www.w3.org/Graphics/SVG/1.1/DTD/svg11.dtd" >
<svg xmlns="http://www.w3.org/2000/svg">
<metadata>
<json>
{
	"fontFamily": "mapicons",
	"majorVersion": 1,
	"minorVersion": 0,
	"version": "Version 1.0",
	"fontId": "mapicons",
	"psName": "mapicons",
	"subFamily": "Regular",
	"fullName": "mapicons",
	"description": "Font generated by IcoMoon."
}
</json>
</metadata>
<defs>
<font id="mapicons" horiz-adv-x="512">
<font-face units-per-em="512" ascent="480" descent="-32" />
<missing-glyph horiz-adv-x="512" />
<glyph unicode="&#x20;" d="" horiz-adv-x="256" />
<glyph unicode="&#xe000;" d="M256.154 455.424c-79.872 0-144.599-63.529-144.599-141.865 0-78.356 144.599-335.319 144.599-335.319s144.609 256.963 144.609 335.319c0 78.336-64.768 141.865-144.609 141.865z" />
<glyph unicode="&#xe001;" d="M20.48 318.638v140.882h146.422l53.883-40.96h-89.795l94.29-99.922-58.378-53.678-95.222 89.59v-89.795zM491.52 134.38v-145.9h-146.422l-53.883 40.96h89.795l-94.29 102.431 58.378 54.927 95.222-88.33v89.794z" />
<glyph unicode="&#xe002;" d="M20.48 318.638v140.882h146.422l53.883-40.96h-89.795l94.29-99.922-58.378-53.678-95.222 89.59v-89.795zM345.62 459.52h145.9v-141.404l-40.96-53.873v89.785l-102.431-94.29-54.927 55.869 88.33 92.713h-89.794zM491.52 134.38v-145.9h-146.422l-53.883 40.96h89.795l-94.29 102.431 58.378 54.927 95.222-88.33v89.794zM166.38-11.52h-145.9v146.422l40.96 53.883v-89.795l102.431 94.29 54.927-58.378-88.33-95.222h89.794z" />
<glyph unicode="&#xe003;" d="M460.8 469.76h-409.6v-409.6h154.552l55.696-82.432 55.705 82.432h143.647z" />
<glyph unicode="&#xe004;" d="M486.349 259.072c-2.304 124.498-74.527 173.967-77.486 175.923l-11.172 7.639-11.254-7.619c-18.698-12.687-38.083-19.128-57.61-19.128-32.338 0-54.292 17.408-55.224 18.166l-12.596 10.107-12.503-10.138c-0.922-0.737-22.866-18.135-55.214-18.135-19.507 0-38.881 6.431-57.61 19.159l-11.203 7.557-11.284-7.629c-7.66-5.263-74.895-54.927-77.333-175.288-0.972-10.485 27.945-208.629 225.25-266.086 214.507 62.689 226.345 252.396 225.239 265.472z" />
<glyph unicode="&#xe005;" d="M435.814 304.814c2.847 33.853 13.056 64.932 31.027 93.43l-68.956 66.396c-21.78-18.053-46.602-28.058-74.701-29.819-25.764-2.243-50.176 2.468-73.155 14.162-23.613-11.305-47.933-16.046-73.277-14.162-26.235 2.253-49.9 11.213-71.096 27.075l-69.13-66.376c17.009-28.897 26.481-59.136 28.334-90.706 0.881-14.531-3.42-34.56-13.097-60.416-5.059-14.336-8.878-26.778-11.5-37.171-2.417-10.332-3.922-18.708-4.434-25.006-0.348-27.556 7.68-52.439 24.146-74.568 12.872-16.148 34.099-33.987 63.57-53.494 32.236-15.8 57.19-26.051 74.67-30.423 5.018-2.263 9.912-4.424 14.5-6.502 4.557-2.089 9.441-4.147 14.531-6.38 11.008-6.349 18.719-13.22 22.784-20.316 4.997 7.69 12.892 14.377 23.378 20.316 7.393 3.113 13.67 5.786 18.698 8.161 5.028 2.15 8.776 3.738 10.947 4.71 3.738 1.772 8.622 3.82 14.561 6.083 5.96 2.263 13.363 5.028 22.159 8.1 17.029 5.796 29.43 11.295 37.304 16.251 28.59 19.497 49.49 37.059 62.792 52.736 17.050 22.2 25.344 47.206 24.965 75.305-1.014 12.595-6.554 32.727-16.609 60.16-9.564 26.737-13.793 47.483-12.411 62.454z" />
<glyph unicode="&#xe006;" d="M143.36 316.16c30.72-10.24 51.2-36.332 51.2-70.738v-264.366c0-8.131 8.223-13.056-0.174-13.056h-151.562c-8.377 0-12.104 4.925-12.104 13.046v264.376c0 34.488 20.48 63.017 51.2 70.738v122.88h61.44v-122.88zM81.92 480h61.44v-20.48h-61.44zM361.011 431.002c-4.68 0.666-8.274 4.465-8.274 9.042 0 3.348 2.007 6.267 4.925 7.926-2.918 1.536-4.925 6.943-4.925 10.322 0 5.078 4.281 11.468 9.585 11.468h47.964c5.335 0 9.585-6.39 9.585-11.459 0-3.533-1.997-7.649-5.038-9.134 2.918-1.587 5.038-5.059 5.038-8.53 0-4.588-3.461-8.673-8.12-9.288l61.082-149.504c3.583-9.717 8.447-20.643 8.447-31.375v-261.99c0-9.994 0.266-20.48-10.24-20.48h-154.511c-10.67 0-9.329 10.486-9.329 20.48v266.24c0 10.721 1.997 17.265 5.601 26.993l48.21 149.289zM-163.84 469.76v0 0 0z" />
<glyph unicode="&#xe007;" d="M418.908 248.054c-12.964 0-25.283-2.662-36.475-7.444l-31.498 53.975 23.736 40.684c3.226 5.55 1.352 12.677-4.188 15.923-2.437 1.413-5.151 3.973-7.721 3.553-0.676 0.112-1.331 2.375-2.017 2.375h-46.561c-6.42 0-11.633-8.94-11.633-15.36 0-6.431 5.212-15.36 11.633-15.36h30.177l-13.588-20.48h-135.967l27.156 51.2h10.762c6.42 0 11.633 3.809 11.633 10.24s-5.212 10.24-11.633 10.24h-58.194c-6.41 0-11.633-3.809-11.633-10.24s5.212-10.24 11.633-10.24h20.47l-65.423-114.33c-11.203 4.782-23.542 6.349-36.495 6.349-51.405 0-93.082-42.23-93.082-93.634 0-51.415 41.677-93.358 93.092-93.358s93.092 41.544 93.092 92.959c0 30.106-14.356 56.74-36.557 73.769l24.914 42.66 71.414-122.429c0.082-0.133 0.184-0.256 0.276-0.389 0.092-0.174 0.205-0.317 0.307-0.461 0.082-0.133 0.143-0.236 0.236-0.348 0.287-0.379 0.604-0.727 0.922-1.065 0.031-0.041 0.072-0.082 0.113-0.133 0.102-0.102 0.205-0.195 0.317-0.287 0.102-0.092 0.215-0.184 0.328-0.266 0.287-0.246 0.594-0.502 0.901-0.717 0.123-0.092 0.246-0.164 0.379-0.246 0.102-0.061 0.195-0.123 0.297-0.195 0.041-0.020 0.072-0.051 0.123-0.072 0.010-0.020 0.031-0.020 0.041-0.041 0.317-0.174 0.645-0.328 0.983-0.481 0.041-0.031 0.072-0.041 0.113-0.051 0.072-0.031 0.154-0.092 0.236-0.123 0.020 0 0.051-0.020 0.082-0.020 0.236-0.102 0.502-0.184 0.748-0.266 0.236-0.082 0.461-0.174 0.696-0.225 0.051-0.010 0.102-0.010 0.143-0.041 0.092-0.010 0.174-0.020 0.256-0.041 0.143-0.031 0.297-0.051 0.451-0.092 0.696-0.133 1.382-0.215 2.089-0.215v0c0.010 0 0.010-0.635 0.010-0.635 0.020 0 0.031-0.604 0.041-0.604h70.564c5.755-40.96 44.831-80.845 92.293-80.845 51.415 0 93.092 41.994 93.092 93.409 0.008 51.404-41.669 93.398-93.084 93.398zM162.908 154.962c0-38.574-31.252-69.827-69.816-69.827s-69.816 31.263-69.816 69.827c0 38.554 31.252 69.806 69.816 69.806 8.673 0 16.947-1.649 24.607-4.547l-34.662-59.412c-3.236-5.54-1.352-12.667 4.198-15.923 1.843-1.065 3.86-1.577 5.847-1.577 4.004 0 7.895 2.068 10.066 5.765l34.673 59.453c15.318-12.81 25.087-32.051 25.087-53.565zM256 180.541l-61.194 104.899h122.399l-61.205-104.899zM337.449 269.476l24.924-43.704c-19.272-14.787-32.584-32.492-35.758-63.212h-50.36l61.194 106.916zM374.18 204.503l24.484-41.943h-48.517c2.805 20.48 11.53 31.488 24.033 41.943zM418.908 84.5c-34.58 0-63.232 26.86-68.772 57.58h68.741c0.031 0 0.031 0.604 0.051 0.604 0.696 0 1.393 0.41 2.079 0.543 0.164 0.041 0.307 0.215 0.471 0.236 0.635 0.154 1.28 0.42 1.935 0.676 0.061 0.031 0.133 0.133 0.215 0.164 0.379 0.174 0.768 0.379 1.157 0.594 0.092 0.051 0.174 0.154 0.276 0.215 0.348 0.225 0.676 0.492 1.034 0.748 0.266 0.225 0.573 0.44 0.799 0.676 0.287 0.256 0.532 0.553 0.778 0.85 0.236 0.266 0.502 0.553 0.696 0.87 0.205 0.276 0.41 0.625 0.584 0.942 0.184 0.328 0.369 0.635 0.532 0.973 0.154 0.348 0.266 0.707 0.399 1.065 0.123 0.348 0.236 0.696 0.317 1.065 0.092 0.369 0.123 0.696 0.174 1.065 0.061 0.44 0.113 0.819 0.133 1.26 0 0.123 0.031 0.236 0.031 0.358 0 0.215-0.051 0.43-0.051 0.655-0.041 0.44-0.072 0.84-0.143 1.27-0.051 0.379-0.154 0.707-0.236 1.085-0.102 0.358-0.195 0.707-0.338 1.065-0.164 0.399-0.338 0.778-0.532 1.157-0.102 0.205-0.174 0.41-0.276 0.604l-34.662 59.412c7.68 2.898 15.944 4.547 24.607 4.547 38.574 0 69.827-31.57 69.827-70.124 0.011-38.574-31.252-70.155-69.826-70.155z" />
<glyph unicode="&#xe008;" d="M128.522-26.726c-3.482-6.103-13.394-7.066-22.139-2.048l-54.743 31.16c-8.704 4.966-12.954 13.947-9.462 20.040l232.827 369.080c33.485 54.129-83.558 49.357-112.292 33.423 21.73 38.963 90.983 51.825 135.896 55.071l13.066-0.85c25.385-12.646 61.788-31.621 85.78-47.534 17.623-27.679 36.209-42.25 62.525-42.179 34.345-26.317-19.302-98.109-53.053-64.86 0.184 16.425-47.473 58.921-80.855 23.91l-197.55-375.213z" />
<glyph unicode="&#xe009;" d="M261.233 450.386l-248.249-205.906h58.696v-245.76h368.64v245.76h64.184l-243.271 205.906zM316.846 70.4h-116.214l24.371 109.681c-14.735 10.24-24.371 25.661-24.371 44.544 0 31.109 26.020 55.695 58.102 55.695 32.102 0 58.112-25.528 58.112-56.637 0-18.893-9.636-33.229-24.361-43.438l24.361-109.845z" />
<glyph unicode="&#xe00a;" d="M3.021 197.571c4.198-32.512 31.918-57.61 65.587-57.61 33.628 0 61.327 25.098 65.536 57.61h-131.123zM360.264 64.461c0-5.663-4.567-10.271-10.22-10.271h-191.037c-5.612 0-10.24 4.608-10.24 10.271v0c0 5.622 4.618 10.168 10.24 10.168h191.027c5.652 0 10.23-4.546 10.23-10.168v0zM149.883 48.957h209.275v-29.562h-209.275zM377.856 197.571c4.188-32.512 31.939-57.61 65.556-57.61 33.638 0 61.348 25.098 65.526 57.61h-131.082zM505.334 218.143l-53.688 73.953h28.703c6.984 0 12.605 5.724 12.605 12.8 0 7.014-5.632 12.677-12.605 12.677h-152.044c-9.062 24.996-30.935 43.776-57.692 48.456l-0.001 25.2v14.705c0 7.096-5.693 12.759-12.749 12.759-0.389 0-0.768-0.082-1.188-0.133-0.379 0.051-0.788 0.133-1.188 0.133-7.055 0-12.728-5.663-12.728-12.759v-39.885c-26.757-4.68-48.62-23.46-57.672-48.456l-152.073 0.001c-6.932 0-12.585-5.663-12.585-12.677 0-7.086 5.652-12.8 12.585-12.8h27.392l-53.699-73.953-6.707-0.001v-13.66h137.196v13.66h-6.738l-53.678 73.933h124.61c0 2.888 0.317 5.724 0.748 8.438 0.44 1.28 0.737 2.58 0.737 3.922 4.69 19.763 20.132 35.461 39.885 40.274v-140.257h-0.532c-1.096-52.756-26.194-98.765-63.427-124.621h155.791c-37.243 25.856-62.321 71.864-63.478 124.621h-0.492v140.257c19.722-4.813 35.215-20.511 39.875-40.274 0.041-1.341 0.317-2.642 0.768-3.922 0.41-2.724 0.666-5.55 0.666-8.438h123.31l-53.699-73.953h-6.697v-13.66h137.155v13.66h-6.666zM63.13 218.143h-42.855l42.854 59.034 0.001-59.034zM74.097 218.143v59.034l42.854-59.034h-42.854zM437.944 218.143h-42.875l42.875 59.034v-59.034zM448.86 218.143v59.034l42.906-59.034h-42.906zM81.316 335.37c0-6.953-5.693-12.687-12.698-12.687-7.035 0-12.749 5.734-12.749 12.687 0 7.025 5.714 12.759 12.749 12.759 7.004 0.011 12.698-5.734 12.698-12.759zM456.141 336.046c0-7.076-5.693-12.687-12.718-12.687-7.055 0-12.718 5.612-12.718 12.687 0 7.025 5.663 12.749 12.718 12.749 7.024 0 12.718-5.724 12.718-12.749z" />
<glyph unicode="&#xe00b;" d="M145.787 75.52h312.146v267.069h-312.146v-267.069zM304.394 316.006l112.538-98.284h-28.355v-117.924h-65.905l0.001 83.242h-41.626v-83.241h-62.423v117.924h-29.082l114.852 98.283zM111.104 408.484v61.092h-69.366v-501.576h69.366v409.262h360.714v31.222z" />
<glyph unicode="&#xe00c;" d="M217.201 418.56c-129.352 0-206.961-103.762-206.961-155.648s25.866-90.798 77.609-90.798c51.743 0 77.619-12.964 77.619-51.876 0-51.876 38.799-90.788 90.542-90.788 168.161 0 245.76 90.788 245.76 181.576-0.010 155.648-129.382 207.534-284.569 207.534v0zM184.863 366.674c17.859 0 32.338-14.52 32.338-32.42 0-17.92-14.479-32.43-32.338-32.43s-32.338 14.52-32.338 32.43c0 17.9 14.479 32.42 32.338 32.42zM288.328 366.674c17.859 0 32.338-14.52 32.338-32.42 0-17.92-14.479-32.43-32.338-32.43-17.848 0-32.328 14.52-32.328 32.43 0 17.9 14.479 32.42 32.328 32.42zM391.813 314.798c17.869 0 32.348-14.51 32.348-32.43s-14.479-32.42-32.348-32.42c-17.859 0-32.328 14.51-32.328 32.42-0.010 17.91 14.47 32.43 32.328 32.43zM94.321 288.85c17.859 0 32.328-14.51 32.328-32.41 0-17.92-14.479-32.43-32.328-32.43s-32.338 14.52-32.338 32.43c0 17.9 14.479 32.41 32.338 32.41zM256 159.15c21.432 0 38.799-17.408 38.799-38.922 0-21.484-17.367-38.902-38.799-38.902s-38.799 17.418-38.799 38.902c0 21.514 17.367 38.922 38.799 38.922v0z" />
<glyph unicode="&#xe00d;" d="M256 418.56c-12.933 0-18.78-6.308-22.63-13.169l-160.871-302.817h-34.765c-15.176 0-27.494-11.725-27.494-26.327 0-14.572 12.319-26.317 27.494-26.317h436.552c15.165 0 27.494 11.745 27.494 26.317 0 14.612-12.319 26.327-27.494 26.327h-34.785l-160.86 302.828c-3.861 6.85-9.698 13.158-22.641 13.158v0zM256 286.904l90.542-184.33h-181.084l90.542 184.33z" />
<glyph unicode="&#xe00e;" d="M387.41 328.325c3.41-53.299-22.446-90.665-22.446-90.665 3.359 41.052-13.281 97.792-13.281 97.792-14.213 2.785-36.925-0.205-36.925-0.205 3.277-44.278-19.241-82.944-35.871-97.178 8.223 49.101-4.864 86.252-4.864 86.252-22.497 5.673-54.743 2.202-54.743 2.202 7.004-52.234-21.811-90.665-21.811-90.665 4.772 36.413-14.684 83.118-14.684 83.118-16.517 1.075-42.834-4.301-42.834-4.301 13.875-24.791 2.796-79.278 2.796-79.278-7.567 44.554-33.004 70.83-33.004 70.83-145.859-62.116-107.439-147.691-36.117-173.179 67.287-24.003 284.099-35.83 381.102 6.257 97.013 42.107 28.702 160.43-67.318 189.020z" />
<glyph unicode="&#xe00f;" d="M40.96 469.76l57.344-462.643c1.792-14.428 14.326-28.877 28.682-28.877h258.028c14.346 0 26.9 14.449 28.662 28.877l57.364 462.643h-430.080zM105.472 411.945h301.046l-13.435-115.661h-274.166l-13.445 115.661z" />
<glyph unicode="&#xe010;" d="M408.801 192.389c4.741-2.324 10.516-2.284 12.831 0.113 2.345 2.386 0.317 6.154-4.485 8.366l-83.743 38.789c-4.803 2.232-12.872 2.796-17.91 1.28l-29.952-8.98c-5.089-1.526-11.725-2.775-14.735-2.775-3.011 0-5.519 4.239-5.519 9.441v91.331c0 5.192 4.332 9.452 9.636 9.452h217.18c5.325 0 9.646 4.25 9.646 9.452v30.667c0 5.202-4.168 10.67-9.236 12.155l-228.711 66.734c-5.069 1.485-13.384 1.485-18.452-0.020l-225.905-66.704c-5.059-1.485-9.206-6.973-9.206-12.165v-30.659c0-5.202 4.332-9.452 9.626-9.452h214.323c5.304 0 9.636-4.26 9.636-9.452v-91.382c0-5.192-4.332-9.452-9.636-9.462h-3.891c-5.304-0.010-12.739 2.959-16.548 6.584l-51.671 49.347c-3.82 3.635-11.254 6.595-16.558 6.595h-23.9c-5.284 0-11.663 3.123-14.152 6.922-2.468 3.809-8.223 6.902-12.78 6.902s-5.96-3.564-3.092-7.946l0.451-0.686c2.867-4.372 2.877-11.571 0.061-15.964l-25.846-40.182c-2.806-4.413-1.935-10.865 2.007-14.356l1.833-1.649c3.942-3.482 10.967-4.383 15.667-1.956l27.689 14.408c4.71 2.437 10.865 0.85 13.722-3.523l30.382-46.51c2.877-4.383 1.915-10.732-2.13-14.090l-13.896-11.602c-4.045-3.359-6.4-10.25-5.233-15.34l18.012-78.356c1.167-5.089 6.339-8.192 11.479-6.912l12.524 3.092c5.151 1.29 8.387 6.472 7.26 11.551l-12.196 52.992c-1.167 5.069 2.058 10.373 7.188 11.735l30.792 8.253c5.1 1.372 13.629 2.468 18.934 2.468h3.891c5.304 0 9.636-4.25 9.636-9.421v-93.972c0-5.181-4.332-9.431-9.636-9.431l-214.322 0.001c-5.294 0-9.626-4.239-9.626-9.462v-30.638c0-5.253 4.332-9.492 9.626-9.492h468.255c5.304 0 9.626 4.239 9.626 9.472v30.638c0 5.222-4.332 9.462-9.626 9.462h-213.187c-5.315 0-9.636 4.25-9.636 9.431v93.972c0 5.171 4.332 9.421 9.636 9.421h11.1c5.304 0 13.773-1.096 18.924-2.468l30.792-8.253c5.14-1.362 8.376-6.656 7.188-11.735l-12.165-52.992c-1.188-5.079 2.068-10.26 7.219-11.551l12.544-3.092c5.151-1.28 10.281 1.823 11.469 6.912l18.033 78.356c1.198 5.089-1.075 11.878-4.997 15.176-3.912 3.256-7.363 10.199-7.67 15.38l-1.567 27.72c-0.317 5.181 3.338 7.526 8.090 5.192l34.907-17.132z" />
<glyph unicode="&#xe011;" d="M10.24 414.659c0 0 23.112-40.96 23.112-67.133s-22.979-65.075-22.979-65.075c0-6.083 4.106-8.151 8.97-4.669l75.602 54.231c15.268-11.274 45.179-26.235 66.898-38.523v-43.889l48.486 27.607c15.565-3.533 31.355-5.775 48.261-5.775 101.878 0 184.586 66.099 184.586 77.117 0 9.574-62.198 60.754-145.418 73.964l-92.528 47.246v-51.067c-43.377-12.022-87.747-36.956-110.275-53.596l-75.878 54.231c-4.854 3.492-8.837 1.413-8.837-4.669zM360.97 335.135c-11.991 0-21.729 9.861-21.729 22.047s9.738 22.036 21.729 22.036c12.012 0 21.688-9.851 21.688-22.036s-9.676-22.047-21.688-22.047zM501.76 143.309c0 6.093-3.983 8.172-8.837 4.669l-75.51-54.252c-22.528 16.64-66.447 41.574-109.885 53.586v51.088l-92.897-47.237c-83.251-13.199-145.623-64.399-145.623-73.974 0-11.018 82.627-77.148 184.494-77.148 16.896 0 33.065 2.294 48.609 5.837l48.845-27.638v43.878c21.688 12.319 51.251 27.259 66.447 38.574l75.407-54.241c4.905-3.533 8.899-1.423 8.899 4.618 0 0-23.020 38.902-23.020 65.096 0.011 26.194 23.071 67.144 23.071 67.144zM166.042 77.896c-12.001 0-21.699 9.841-21.699 22.047 0 12.165 9.697 21.996 21.699 21.996 11.981 0 21.709-9.841 21.709-21.996-0.001-12.207-9.718-22.047-21.709-22.047z" />
<glyph unicode="&#xe012;" d="M492.022 108.186c5.355-1.731 9.738 1.454 9.738 7.086v35.779c0 5.632-3.963 12.595-8.796 15.483l-187.208 111.564c-4.833 2.877-8.796 9.851-8.796 15.473v124.989c0 5.632-1.72 14.51-3.83 19.743 0 0-11.172 27.73-30.72 30.822-2.089 0.369-4.208 0.635-6.338 0.635-0.021 0-0.052 0-0.072 0-0.010 0-0.020 0-0.031 0-2.468 0.020-4.905-0.287-7.301-0.737-0.758-0.133-1.474-0.318-2.212-0.492-1.147-0.297-2.263-0.635-3.359-1.044-16.261-5.427-24.637-29.030-24.637-29.030-1.884-5.315-3.42-14.265-3.42-19.897v-124.989c0-5.632-3.963-12.595-8.796-15.483l-187.208-111.555c-4.833-2.888-8.796-9.851-8.796-15.483v-35.779c0-5.632 4.383-8.817 9.738-7.076l185.324 60.16c5.355 1.731 9.738-1.453 9.738-7.085v-97.618c0-5.632-3.686-13.015-8.192-16.394l-24.576-18.452c-4.506-3.379-8.192-10.762-8.192-16.394v-23.932c0-5.632 4.434-8.97 9.841-7.414l62.208 17.869c5.407 1.556 14.275 1.556 19.681 0l62.269-17.869c5.407-1.556 9.841 1.782 9.841 7.414v23.941c0 5.632-3.686 13.015-8.192 16.394l-24.576 18.452c-4.495 3.379-8.192 10.762-8.192 16.394v97.618c0 5.632 4.383 8.817 9.738 7.076l185.324-60.169z" />
<glyph unicode="&#xe013;" d="M355.144 215.798c-14.725 11.612-36.823 20.89-66.294 27.822l-22.61 5.335v96.563c1.004-0.44 2.099-0.768 3.062-1.249 19.19-9.718 29.501-28.109 30.914-48.589h76.964c-1.403 40.96-16.538 71.25-45.404 92.652-19.18 14.223-41.052 23.367-65.536 27.975v53.453h-71.68v-51.814c-33.147-4.096-59.433-14.766-78.735-32.113-25.272-22.712-37.898-51.22-37.898-85.545 0-37.612 12.913-65.26 38.738-82.944 14.459-10.025 40.52-19.333 77.896-27.955v-104.612c-13.629 3.758-24.31 9.943-31.836 18.883-7.261 8.683-12.125 17.94-14.603 38.42h-76.442c0-40.96 14.449-70.349 43.356-93.143 20.869-16.445 47.432-26.44 79.524-30.771v-39.926h71.68v39.25c34.13 4.086 61.686 14.981 82.555 32.809 27.064 23.142 40.602 52.224 40.602 87.235-0.001 34.15-11.418 60.231-34.253 78.264zM170.68 275.364c-12.442 6.758-18.657 17.019-18.657 30.72 0 14.909 6.308 26.593 18.924 34.908 6.656 4.393 14.582 7.588 23.613 9.697v-84.214c-11.11 3.236-19.128 6.206-23.88 8.889zM277.944 86.876c-3.553-1.229-7.516-2.243-11.704-3.133v89.057c12.339-3.656 22.077-7.639 29.164-11.919 11.182-6.932 16.783-16.794 16.783-29.44-0.010-21.668-11.428-36.588-34.243-44.565z" />
<glyph unicode="&#xe014;" d="M419.84 70.4v348.16c0 22.528-18.432 40.96-40.96 40.96h-245.76c-22.528 0-40.96-18.432-40.96-40.96v-389.12c0-22.528 18.432-40.96 40.96-40.96h245.76c19.026 0 40.96 0 40.96 20.48 0 4.26 0 0 0 10.24h-276.48c-11.264 0-20.48 9.216-20.48 20.48v30.72h296.96zM143.36 377.6c0 5.632 4.608 10.24 10.24 10.24h204.8c5.632 0 10.24-4.608 10.24-10.24v-20.48c0-5.632-4.608-10.24-10.24-10.24h-204.8c-5.632 0-10.24 4.608-10.24 10.24v20.48zM143.36 295.68c0 5.632 4.608 10.24 10.24 10.24h204.8c5.632 0 10.24-4.608 10.24-10.24v-20.48c0-5.632-4.608-10.24-10.24-10.24h-204.8c-5.632 0-10.24 4.608-10.24 10.24v20.48z" />
<glyph unicode="&#xe015;" d="M378.88 408.32h-286.72v-276.48c0-22.528 18.432-40.96 40.96-40.96h204.8c22.528 0 40.96 18.432 40.96 40.96v51.2c62.218 0 112.64 50.432 112.64 112.64s-50.422 112.64-112.64 112.64zM378.88 234.24v122.88c33.935 0 61.44-27.505 61.44-61.44 0-33.925-27.505-61.44-61.44-61.44zM20.48 70.4v-23.562c0-19.415 21.187-27.638 47.104-27.638h376.832c25.907 0 47.104 8.223 47.104 27.638v23.562h-471.040z" />
<glyph unicode="&#xe016;" d="M419.84 439.040h-193.772c-15.391 20.48-40.612 38.42-69.14 38.42-46.868 0-84.859-36.618-84.859-83.487 0-46.879 37.99-82.299 84.859-82.299 35.645 0 66.14 24.965 78.725 55.685h28.211l20.449 20.46 20.44-20.459h12.749l20.439 20.46 20.449-20.46h12.739l20.449 20.46 20.449-20.46h7.813v-2.877l-1.782-0.42 40.346 39.547-38.564 35.43zM129.464 371.354c-13.558 0-24.566 11.008-24.566 24.586s11.008 24.576 24.566 24.576c13.578 0 24.586-10.998 24.586-24.576s-11.007-24.586-24.586-24.586zM440.32 172.8h-5.663l-62.915 113.92c-2.713 4.925-9.553 8.96-15.185 8.96h-190.874c-5.632 0-12.472-4.035-15.186-8.96l-62.925-113.92h-5.652c-11.264 0-20.48-9.216-20.48-20.48v-102.4c0-11.264 9.216-20.48 20.48-20.48h20.48v-30.72c0-16.896 13.824-30.72 30.72-30.72h10.24c16.896 0 30.72 13.824 30.72 30.72v30.72h174.080v-30.72c0-16.896 13.824-30.72 30.72-30.72h10.24c16.896 0 30.72 13.824 30.72 30.72v30.72h20.48c11.264 0 20.48 9.216 20.48 20.48v102.4c0 11.264-9.216 20.48-20.48 20.48zM117.76 90.88c-14.141 0-25.6 11.459-25.6 25.6s11.459 25.6 25.6 25.6 25.6-11.459 25.6-25.6-11.459-25.6-25.6-25.6zM138.24 172.8l41.503 82.995c2.519 5.049 9.185 9.165 14.817 9.165h133.12c5.632 0 12.298-4.116 14.817-9.165l41.503-82.995h-245.76zM404.48 90.88c-14.141 0-25.6 11.459-25.6 25.6s11.459 25.6 25.6 25.6 25.6-11.459 25.6-25.6-11.459-25.6-25.6-25.6z" />
<glyph unicode="&#xe017;" d="M489.298 358.318c-7.045 5.55-25.938 10.004-40.079 13.322l-19.139 2.56v46.265c0-0.205 9.339 0.379 9.8 0.154 9.185-4.66 22.415-12.299 23.101-22.539h36.905c-0.686 20.48-16.241 33.403-30.085 43.663-9.185 6.81-19.241 10.445-39.721 12.647v25.61h-20.48v-24.822c-20.48-1.966-27.095-7.066-36.342-15.391-12.093-10.885-17.479-24.545-17.479-40.99 0-18.022 5.151-31.263 17.531-39.741 6.922-4.803 15.81-9.268 36.29-13.405v-50.125c-10.24 1.812-10.26 1.352-13.875 5.642-3.482 4.158-4.434 14.992-5.622 14.992h-36.618c0-20.48 5.54-30.29 19.405-41.216 9.994-7.875 16.23-9.267 36.71-11.336v-19.128h20.48v18.801c20.48 1.976 37.878 7.188 47.882 15.729 12.984 11.090 23.603 25.027 23.603 41.8-0.010 16.362-1.321 28.855-12.267 37.508zM399.544 386.847c-5.96 3.246-8.253 8.161-8.253 14.725 0 7.148 1.976 12.739 8.018 16.732 3.184 2.099 0.051 3.625 10.291 4.639v-40.346c-10.24 1.557-7.803 2.97-10.056 4.25zM444.017 296.53c-1.721-0.594-13.937-1.065-13.937-1.485v42.67c20.48-1.761 18.903-3.656 22.303-5.714 5.335-3.318 8.018-8.049 8.018-14.1 0-10.404-5.479-17.541-16.384-21.371zM394.445 172.8h-5.663l-62.915 113.92c-2.713 4.925-9.553 8.96-15.185 8.96h-190.884c-5.632 0-12.472-4.035-15.186-8.96l-62.915-113.92h-5.652c-11.274 0-25.805-9.216-25.805-20.48v-102.4c0-11.264 14.531-20.48 25.805-20.48h15.155v-30.72c0-16.896 19.149-30.72 36.045-30.72h10.24c16.896 0 25.395 13.824 25.395 30.72v30.72h174.080v-30.72c0-16.896 19.139-30.72 36.045-30.72h10.24c16.896 0 25.395 13.824 25.395 30.72v30.72h25.805c11.264 0 15.155 9.216 15.155 20.48v102.4c0 11.264-3.901 20.48-15.155 20.48zM71.885 90.88c-14.141 0-25.6 11.459-25.6 25.6s11.458 25.6 25.6 25.6 25.6-11.459 25.6-25.6-11.469-25.6-25.6-25.6zM92.365 172.8l41.503 82.995c2.508 5.049 9.185 9.165 14.817 9.165h133.12c5.632 0 12.298-4.116 14.817-9.165l41.503-82.995h-245.76zM358.605 90.88c-14.141 0-25.6 11.459-25.6 25.6s11.459 25.6 25.6 25.6 25.6-11.459 25.6-25.6-11.469-25.6-25.6-25.6z" />
<glyph unicode="&#xe018;" d="M378.88 469.76c-5.632 0-10.24-4.608-10.24-10.24v-143.36c0-5.632-4.608-10.24-10.24-10.24h-204.8c-5.632 0-10.24 4.608-10.24 10.24v143.36c0 5.632-4.608 10.24-10.24 10.24h-92.16c-5.632 0-10.24-4.608-10.24-10.24v-471.040c0-5.632 4.608-10.24 10.24-10.24h92.16c5.632 0 10.24 4.608 10.24 10.24v163.84c0 5.632 4.608 10.24 10.24 10.24h204.8c5.632 0 10.24-4.608 10.24-10.24v-163.84c0-5.632 4.608-10.24 10.24-10.24h92.16c5.632 0 10.24 4.608 10.24 10.24v471.040c0 5.632-4.608 10.24-10.24 10.24h-92.16z" />
<glyph unicode="&#xe019;" d="M432.466 220.826c3.553 4.372 10.834 9.4 16.169 11.162l43.971 17.951c5.038 2.528 9.154 9.205 9.154 14.826v125.43c0 5.632-4.311 11.878-9.574 13.875 0 0-91.986 34.97-153.61 34.97-57.344 0-136.622-30.239-136.622-30.239-5.263-2.007-14.141-4.209-19.732-4.905l-161.814-17.387c-5.591-0.686-10.168-5.857-10.168-11.489v-85.135c0-5.632 4.526-11.090 10.066-12.124l161.741-26.102c5.55-0.922 14.387-3.379 19.62-5.458l110.766-28.334c5.56-0.84 11.633-5.878 13.466-11.213l65.116-188.017c1.843-5.335 7.721-8.212 13.056-6.42l68.844 23.153c5.335 1.792 8.202 7.608 6.359 12.943l-45.199 130.386c-1.843 5.335-3.4 9.994-3.471 10.373 0 0 0 0-0.082 0.389-5.419 22.261 1.944 31.365 1.944 31.365zM353.884 288.502c-25.702 0-46.459 20.48-46.459 45.722 0 25.252 20.756 45.722 46.459 45.722 25.62 0 46.438-20.48 46.438-45.722s-20.817-45.722-46.438-45.722z" />
<glyph unicode="&#xe01a;" d="M183.931 20.49c3.83-4.127 3.604-10.66-0.512-14.5l-22.241-20.797c-4.116-3.84-10.619-3.615-14.449 0.522l-129.526 139.592c-3.83 4.127-3.594 10.65 0.522 14.5l22.272 20.767c4.116 3.85 10.619 3.615 14.449-0.522l129.485-139.562zM349.204 283.146c3.83-4.127 3.594-10.66-0.522-14.5l-139.981-130.764c-4.116-3.84-10.619-3.615-14.449 0.522l-33.413 36.055c-3.83 4.127-3.594 10.66 0.522 14.5l139.95 130.765c4.106 3.84 10.609 3.615 14.438-0.522l33.455-36.056zM231.557 65.004c3.83-4.127 3.594-10.65-0.522-14.5l-22.272-20.787c-4.116-3.85-10.619-3.615-14.449 0.522l-129.454 139.591c-3.83 4.127-3.604 10.66 0.512 14.5l22.231 20.777c4.116 3.84 10.619 3.615 14.449-0.522l129.505-139.581zM447.242 278.139c3.83-4.127 3.594-10.66-0.532-14.5l-22.262-20.787c-4.116-3.84-10.619-3.615-14.459 0.512l-129.474 139.561c-3.84 4.127-3.604 10.65 0.512 14.5l22.323 20.838c4.106 3.84 10.609 3.615 14.438-0.522l129.454-139.602zM494.797 322.58c3.83-4.127 3.594-10.66-0.522-14.51l-22.221-20.777c-4.106-3.85-10.609-3.615-14.438 0.512l-129.455 139.623c-3.83 4.127-3.604 10.66 0.512 14.51l22.241 20.818c4.106 3.85 10.598 3.625 14.428-0.512l129.455-139.664z" />
<glyph unicode="&#xe01b;" d="M409.6 49.92c0 0 0 0 0 0 0-22.622 18.339-40.96 40.96-40.96s40.96 18.339 40.96 40.96c0 0 0 0 0 0s0 0 0 0c0 22.622-18.339 40.96-40.96 40.96s-40.96-18.339-40.96-40.96c0 0 0 0 0 0zM112.64 49.92c0-22.622 18.338-40.96 40.96-40.96s40.96 18.339 40.96 40.96c0 22.622-18.339 40.96-40.96 40.96s-40.96-18.339-40.96-40.96zM481.28 142.080h-319.785l6.83 11.080c2.929 4.751 3.789 10.496 2.386 15.903l-6.666 25.661 296.786 15.421c11.253 0.574 20.449 10.271 20.449 21.535v135.68c0 11.264-9.216 20.48-20.48 20.48h-346.941l-4.004 15.391c-2.345 9.031-10.496 15.329-19.825 15.329h-69.55c-11.305 0-20.48-9.175-20.48-20.48s9.175-20.48 20.48-20.48h53.719l54.682-210.381-21.504-34.867c-3.891-6.318-4.065-14.254-0.44-20.726 3.604-6.482 10.444-10.506 17.868-10.506h356.475c11.305 0 20.48 9.175 20.48 20.48s-9.175 20.48-20.48 20.48z" />
<glyph unicode="&#xe01c;" d="M363.356 326.052c-2.54 0-4.956 1.71-4.956 4.209v63.283c0 2.498-1.372 4.536-3.922 4.536h-196.966c-2.55 0-3.912-2.038-3.912-4.536v-63.283c0-2.499-2.755-3.861-5.315-3.861h-133.447c-2.519 0-4.598-2.734-4.598-5.202v-70.349c0-2.478 2.079-6.369 4.598-6.369h214.897c2.549 0 5.785 3.891 5.785 6.369v15.002c0 2.498 0.942 9.349 3.482 9.349h34.007c2.539 0 3.471-6.851 3.471-9.349v-15.002c0-2.478 3.236-6.369 5.765-6.369h214.886c2.561 0 4.629 3.891 4.629 6.369v70.349c0 2.478-2.068 5.202-4.618 5.202h-133.438l-0.348-0.348zM185.272 326.4c-2.539 0-0.952 1.362-0.952 3.85v35.973c0 2.509-1.587 1.137 0.952 1.137h141.455c2.54 0 0.953 1.372 0.953-1.137v-35.973c0-2.488 1.587-3.85-0.952-3.85h-141.456zM277.043 175.749c0-2.478-1.495-2.949-4.035-2.949h-34.006c-2.54 0-3.482-1.096-3.482 1.382v50.565c0 2.479-3.236 9.493-5.775 9.493h-214.907c-2.519 0-4.598-7.014-4.598-9.492v-149.801c0-2.489 2.079-4.547 4.598-4.547h482.304c2.55 0 4.618 2.058 4.618 4.536v149.812c0 2.478-2.068 9.492-4.618 9.492h-214.897c-2.529 0-5.765-7.014-5.765-9.492v-50.565l0.563 1.566z" />
<glyph unicode="&#xe01d;" d="M402.964 305.92h-296.468c-52.941 0-96.256-37.274-96.256-87.040s43.315-87.040 96.256-87.040h296.468c52.92 0 96.236 37.284 96.236 87.040 0 49.766-43.315 87.040-96.236 87.040zM402.995 152.32h-146.995v133.12h146.995c39.035 0 71.004-29.85 71.004-66.56s-31.959-66.56-71.004-66.56z" />
<glyph unicode="&#xe01e;" d="M317.44 223.98c-33.884 0-61.399-27.494-61.399-61.42 0-33.956 27.525-61.44 61.399-61.44 33.894 0 61.42 27.484 61.42 61.44 0 33.915-27.526 61.42-61.42 61.42zM440.33 346.911l-50.596 102.062c-4.085 12.103-15.544 20.787-29.071 20.787h-84.388c-13.763 0-25.242-8.929-29.225-21.248l-52.418-101.632h-122.962c-33.874 0-61.43-27.525-61.43-61.45v-307.19h491.52v307.19c0 33.925-27.535 61.481-61.43 61.481zM102.4 223.98c-16.998 0-30.73 13.742-30.73 30.7 0 17.019 13.742 30.751 30.73 30.751s30.71-13.732 30.71-30.751c0-16.958-13.712-30.7-30.71-30.7zM317.44 39.619c-67.84 0-122.89 55.060-122.89 122.941 0 67.85 55.040 122.87 122.89 122.87s122.89-55.009 122.89-122.87c0-67.881-55.040-122.941-122.89-122.941z" />
<glyph unicode="&#xe01f;" d="M126.29 254.72h27.31v-163.84h40.96v143.36h40.96v-143.36h40.96v143.36h40.96v-143.36h40.96v163.84h27.3c7.536 0 13.66 7.537 13.66 14.326 0 4.106-2.263 8.735-5.683 10.967l0.020 0.532-0.215 0.379c-0.123 0.072 1.475 0.266 1.372 0.338l-128.614 66.243v19.374c20.48-10.844 40.458 7.834 71.68-3.4v42.793c-31.242 11.223-51.2-7.444-71.68 3.4v2.744c0 3.389-6.461 6.144-10.24 6.144s-10.24-2.755-10.24-6.144v-64.911l-128.604-66.109c-0.123-0.061 2.898-0.133 2.775-0.215l2.949-0.113v-0.020c-10.24-2.232-7.946-7.885-7.946-11.991-0.010-6.8 3.819-14.337 11.356-14.337zM143.36 80.64l-30.72-30.72h286.72l-30.72 30.72zM368.64 244.48v-153.6h9.062l4.004-5.663 27.3-25.59 9.656-9.707h83.098v194.56h-133.12zM430.080 121.6h-30.72v30.72h30.72v-30.72zM430.080 183.040h-30.72v30.72h30.72v-30.72zM471.040 121.6h-20.48v30.72h20.48v-30.72zM471.040 183.040h-20.48v30.72h20.48v-30.72zM134.287 90.88h9.073v153.6h-133.12v-194.56h83.087l9.646 8.684 27.31 26.624 4.004 5.652zM61.44 121.6h-20.48v30.72h20.48v-30.72zM61.44 183.040h-20.48v30.72h20.48v-30.72zM112.64 121.6h-30.72v30.72h30.72v-30.72zM112.64 183.040h-30.72v30.72h30.72v-30.72z" />
<glyph unicode="&#xe020;" d="M296.95 433.736c-74.732 0-133.11-59.177-133.11-132.188v-313.068h51.2v102.4h163.84v-102.4h51.2v313.068c0 73.011-58.368 132.188-133.13 132.188zM40.96 459.52l75.407-122.88h7.864c4.773 51.2 39.609 93.225 90.809 112.2v10.68h-174.080z" />
<glyph unicode="&#xe021;" d="M501.76 305.92c0 5.632-4.608 10.24-10.24 10.24h-133.12c-5.632 0-10.24 4.608-10.24 10.24v133.12c0 5.632-4.608 10.24-10.24 10.24h-163.84c-5.632 0-10.24-4.608-10.24-10.24v-133.12c0-5.632-4.608-10.24-10.24-10.24h-133.12c-5.632 0-10.24-4.608-10.24-10.24v-163.84c0-5.632 4.608-10.24 10.24-10.24h133.12c5.632 0 10.24-4.608 10.24-10.24v-133.12c0-5.632 4.608-10.24 10.24-10.24h163.84c5.632 0 10.24 4.608 10.24 10.24v133.12c0 5.632 4.608 10.24 10.24 10.24h133.12c5.632 0 10.24 4.608 10.24 10.24v163.84z" />
<glyph unicode="&#xe022;" d="M30.116 398.080c-30.116 0-15.053-7.977 0-20.214l225.884-171.919 225.884 171.387c15.073 12.237 30.116 20.746 0 20.746h-451.768zM0 357.673v-253.215c0-14.899 15.237-34.058 27.29-34.058h457.421c12.063 0 27.29 19.159 27.29 34.058v253.215l-256-195.328-256.001 195.328z" />
<glyph unicode="&#xe023;" d="M112.64 60.16c0-5.632 4.608-10.24 10.24-10.24h348.16c5.632 0 10.24 4.608 10.24 10.24v296.96c0 5.632-4.608 10.24-10.24 10.24h-348.16c-5.632 0-10.24-4.608-10.24-10.24v-296.96zM289.751 319.939c4.28 3.666 11.254 3.625 15.493-0.072l113.787-99.369c4.239-3.707 3.103-6.738-2.529-6.738h-6.902c-5.632 0-10.24-4.608-10.24-10.24v-112.64c0-5.632-4.608-10.24-10.24-10.24h-51.2c-5.632 0-10.24 4.608-10.24 10.24v81.92c0 5.632-4.608 10.24-10.24 10.24h-40.96c-5.632 0-10.24-4.608-10.24-10.24v-81.92c0-5.632-4.608-10.24-10.24-10.24h-51.2c-5.632 0-10.24 4.608-10.24 10.24v112.64c0 5.632-4.608 10.24-10.24 10.24h-8.417c-5.632 0-6.738 2.99-2.458 6.656l116.306 99.523zM102.4 418.56c-5.632 0-10.24 4.608-10.24 10.24v30.72c0 5.632-4.608 10.24-10.24 10.24h-40.96c-5.632 0-10.24-4.608-10.24-10.24v-471.040c0-5.632 4.608-10.24 10.24-10.24h40.96c5.632 0 10.24 4.608 10.24 10.24v389.12c0 5.632 4.608 10.24 10.24 10.24h368.64c5.632 0 10.24 4.608 10.24 10.24v10.24c0 5.632-4.608 10.24-10.24 10.24h-368.64z" />
<glyph unicode="&#xe024;" d="M281.692 381.911c6.195-5.673 12.063-11.028 16.466-17.756l2.447-3.738 4.045 1.925c11.244 5.376 18.913 13.978 26.327 22.292 5.591 6.267 10.875 12.196 17.5 16.65l4.116 2.775-2.652 4.209c-11.54 18.309-26.593 33.546-44.728 45.302l-3.799 2.468-2.908-3.482c-11.407-13.67-24.033-26.45-37.519-37.98l-2.959-2.54 1.659-3.533c5.324-11.334 13.803-19.086 22.005-26.592zM347.546 304.425c38.492 0 70.011 15.729 88.75 44.298l2.232 3.4-2.796 2.949c-3.256 3.42-6.369 6.994-9.482 10.568-9.288 10.66-18.903 21.678-32.44 28.989l-4.721 2.55-2.324-4.854c-15.831-32.973-46.479-39.895-69.396-39.895-40.172 0-88.453 22.415-109.916 51.046l-16.896 22.538 7.895-27.044c14.673-50.37 84.356-94.545 149.094-94.545zM214.712 216.023c15.995 30.433 16.66 66.068 1.69 98.376-14.766 31.887-42.097 54.364-73.093 60.16-6.564 1.229-13.036 1.833-19.241 1.833-37.642 0-62.28-21.975-86.098-43.213-8.673-7.731-16.865-15.084-25.61-21.32l-6.113-4.465 6.287-4.311c2.007-1.3 7.055-8.97 11.121-14.807 12.902-18.534 23.654-33.556 35.082-33.556 0 0 0.010 0 0.010 0 4.024 0 7.782 4.772 20.879 19.497 5.519 6.195 11.766 14.070 15.114 16.722 14.971 11.889 35.492 28.17 57.907 28.17 3.021 0 6.062-0.297 9.021-0.891 10.373-2.079 16.64-6.881 19.149-14.694 5.14-16.005-6.666-40.54-16.794-51.374-5.11-5.478-10.701-9.421-16.63-13.599-8.499-5.99-17.285-12.196-24.545-23.101l-2.355-3.543 3.062-2.97c4.424-4.28 8.817-8.581 13.21-12.882 11.366-11.131 23.122-22.641 35.185-33.516l4.045-3.645 3.4 4.26c7.649 9.595 15.718 19.804 23.634 30.239 2.13-3.164 4.393-6.4 6.717-9.718 17.459-24.965 37.253-53.258 24.34-90.235-9.615-27.556-42.086-45.496-78.664-42.865-43.254 3.031-81.756 39.956-117.729 112.886-2.243 4.557-4.086 9.667-5.868 14.612-4.168 11.571-8.489 23.532-18.545 30.966l-10.086 7.455 1.987-12.38c10.557-65.864 41.503-129.423 82.79-170.025 24.975-24.596 65.956-40.489 104.397-40.489 44.411 0 91.996 23.081 92.324 87.859 0.287 60.672-37.181 100.076-67.297 131.738l-2.683 2.826zM494.971 271.657c-11.93 22.19-56.781 38.369-79.278 33.444-34.079-7.434-57.969-26.716-79.053-43.735-21.576-17.428-40.223-32.471-65.106-32.471-7.475 0-15.124 1.331-23.378 4.055l-13.107 4.332 7.107-11.827c16.323-27.167 35.379-40.376 58.255-40.376 18.586 0.010 37.612 8.919 56.463 20.46l4.229-12.534c9.574-28.355 51.251-70.41 89.19-70.41 0.758 0 1.516 0.020 2.273 0.061 16.558 0.737 30.382 10.066 39.987 27.003 19.683 34.681 17.46 94.063 2.418 121.998zM382.935 222.648c27.976 19.016 57.364 38.543 81.439 34.294 10.476-18.207 6.195-33.884 0.625-43.96-10.629-19.18-33.915-32.584-56.648-32.584-10.711 0-26.081 3.052-38.492 17.572l-8.735 10.209c7.301 4.618 14.582 9.564 21.811 14.469z" />
<glyph unicode="&#xe025;" d="M225.28 460.216v-113.336h-20.48v112.64c0 5.652-4.588 10.24-10.24 10.24s-10.24-4.588-10.24-10.24v-112.64h-20.48v113.009c0 13.179-20.48 12.728-20.48 0.338v-113.347h-20.48v112.538c0 13.957-20.48 13.445-20.48 0.553v-148.193c0-21.371 20.48-35.461 40.96-35.461v-267.357c0-40.96 61.44-40.96 61.44 0v267.346c20.48 0 40.96 17.019 40.96 33.044v150.539c0 13.056-20.48 12.554-20.48 0.327zM317.44 428.8v-256h20.48v-163.84c0-40.96 71.68-40.96 71.68 0v419.84c0 51.2-92.16 51.2-92.16 0z" />
<glyph unicode="&#xe026;" d="M337.029 152.32l-60.508 166.267c-0.225 0.522-0.348 1.106-0.348 1.71 0 2.427 2.038 4.393 4.577 4.393 2.161 0 3.973-1.444 4.454-3.369l41.135-107.561c2.734-6.154 13.978-10.24 21.371-10.24 9.882 0 10.906 19.405 10.691 20.48l-41.134 106.056c-3.575 23.767-27.577 47.544-54.969 47.544h-53.607c-27.392 0-53.176-23.777-56.75-47.544l-39.291-106.056c-0.891-2.038 0-20.48 10.68-20.48 8.305 0 19.354 2.898 21.371 10.24l39.68 108.022c0.635 1.7 2.335 2.908 4.311 2.908 2.529 0 4.567-1.966 4.567-4.383 0-0.553-0.092-1.085-0.287-1.567l-58.951-166.42c-0.113-0.492 0-9.738 0-10.24 0-3.543 8.55-10.24 12.268-10.24h38.031v-134.093c0-10.649 9.38-19.507 20.48-19.507s20.48 8.868 20.48 19.507v134.185c0 2.898 20.48 2.806 20.48-0.092v-133.12c0-10.65 9.39-20.48 20.48-20.48 11.121 0 20.48 9.841 20.48 20.48v133.12h39.619c3.707 0 10.691 6.697 10.691 10.24-0.001 0.819 0.296 9.533-0.001 10.24zM192 432.64c0-23.328 18.911-42.24 42.24-42.24s42.24 18.912 42.24 42.24c0 23.329-18.911 42.24-42.24 42.24s-42.24-18.911-42.24-42.24z" />
<glyph unicode="&#xe027;" d="M184.32-1.28c0-12.626 7.864-20.48 20.48-20.48 12.646 0 20.48 7.854 20.48 20.48v194.56h20.48v-194.56c0-12.605 7.854-20.48 20.48-20.48s20.48 7.854 20.48 20.48v327.68h10.24v-120.975c0-24.525 30.781-24.525 30.72 0v124.446c0 27.095-19.517 47.729-51.2 47.729h-81.92c-28.877 0-51.2-17.603-51.2-46.971v-127.109c0-20.48 30.72-20.48 30.72 0v122.88h10.24v-327.68zM192 432.64c0-23.328 18.911-42.24 42.24-42.24s42.24 18.912 42.24 42.24c0 23.329-18.911 42.24-42.24 42.24s-42.24-18.911-42.24-42.24z" />
<glyph unicode="&#xe028;" d="M470.303 183.562l-1.116 3.011c-3.502 9.441-7.834 21.176-18.934 27.822-7.731 4.628-16.722 6.236-24.648 7.649-4.076 0.727-7.936 1.434-11.244 2.437-0.973 0.287-1.935 0.655-2.908 1.024-0.154 0.051-0.307 0.092-0.461 0.154-31.826 25.559-96.266 26.255-136.407 62.403-57.528 51.773-103.7 103.833-155.627 181.698l-64.881-51.917c-4.506-3.604-13.107-6.492-13.107-19.466 0-6.482 6.595-7.475 14.367-5.069l36.598 11.561 102.625-142.786c0-25.958 0-53.688 0-77.885 0-18.022-0.297-34.427 14.991-43.745l-38.543-162.213h25.958l24.392 77.025 24.402 38.093v-115.118h30.72v128.082c0 0-0.358 25.958 25.6 25.958s25.6-25.958 25.6-25.958v-128.082h20.48v102.4l56.484-102.4h25.958c-12.984 40.96-31.242 37.243-31.242 76.175v25.958c0 27.218 30.72 51.917 30.72 77.875v25.938c0 6.164-0.799 11.622-2.202 16.558 4.526-0.922 8.684-2.038 11.848-3.942 4.905-2.939 7.619-10.271 10.24-17.357l1.188-3.195c2.017-5.274 7.926-7.926 13.21-5.919l0.010 0.010c5.294 2.029 7.946 7.937 5.929 13.221z" />
<glyph unicode="&#xe029;" d="M189.235 286.72c23.859 4.055 41.554 25.784 44.247 51.743 2.734 26.399 8.899 132.485-30.925 125.737-103.301-17.521-96.051-191.509-13.322-177.48zM325.151 286.72c82.708-14.029 89.958 159.959-13.343 177.49-39.813 6.748-33.659-99.338-30.935-125.737 2.703-25.969 20.419-47.698 44.278-51.753zM146.801 204.749c0 13.804-4.925 26.317-12.861 35.42-13.056 17.060-54.559 51.558-64.748 42.721-21.269-18.493-20.583-64.010-7.772-97.085 6.584-18.391 22.487-31.324 41.073-31.324 24.463 0 44.308 22.507 44.308 50.268zM445.164 282.89c-10.168 8.837-51.671-25.661-64.727-42.721-7.936-9.103-12.872-21.617-12.872-35.42 0-27.761 19.866-50.268 44.308-50.268 18.596 0 34.509 12.933 41.093 31.324 12.78 33.075 13.486 78.592-7.802 97.085zM361.851 126.454c-37.642 18.77-36.475 54.917-45.036 87.9-6.81 26.307-30.925 45.763-59.628 45.763-28.088 0-51.784-18.647-59.177-44.155-9.165-31.56-3.645-68.301-44.677-89.262-33.331-10.865-46.828-26.716-46.828-64.205 0-30.454 26.143-63.058 59.884-67.113 37.642-5.673 67.011 1.741 90.798 15.299 23.788-13.558 53.135-20.961 90.839-15.299 33.72 4.055 59.873 36.536 59.873 67.113-0.009 38.308-12.645 52.582-46.048 63.959zM317.44 80.64h-39.025l0.051-40.96h-42.557l0.061 40.96h-41.41v40.96h41.421l-0.061 40.96h42.557l-0.051-40.96h39.014v-40.96z" />
<glyph unicode="&#xe02a;" d="M219.484 401.265l-24.924-33.905h-58.204c7.178-20.48 30.679-39.793 63.498-33.382 9.728 0.655 42.547 5.868 56.146 2.662 18.104-4.342 10.557-4.362 43.018-30.413l161.782-133.427c9.912-8.755 22.589-5.171 31.365 4.721 8.776 9.912 9.267 27.484-0.645 36.239l-204.8 163.84c-12.82 10.291-16.056 24.545-20.48 40.96-8.602 28.211-40.233 50.842-71.281 50.842-25.016 0-51.937-21.638-61.839-40.602h61.44l24.924-27.535zM359.977 152.32v0l-63.304 109.875c-2.498 4.557-8.816 13.005-14.008 13.005h-176.21c-5.192 0-11.51-8.448-14.019-13.005l-61.716-109.875h-1.577c-10.394 0-18.903-3.779-18.903-14.182v-94.515c0-10.404 8.509-14.183 18.903-14.183h22.057v-33.075c0-15.606 9.605-28.365 25.201-28.365h9.452c15.605 0 26.787 12.759 26.787 28.365v33.075h163.84v-33.075c0-15.596 11.182-28.365 26.778-28.365h9.452c15.605 0 25.21 12.759 25.21 28.365v33.075h22.057c10.394 0 18.903 3.779 18.903 14.182v94.515c0 10.404-8.509 14.183-18.903 14.183zM62.228 81.428c-13.056 0-23.634 10.578-23.634 23.634s10.578 23.634 23.634 23.634c13.046 0 23.634-10.578 23.634-23.634s-10.578-23.634-23.634-23.634zM81.132 152.32l38.308 80.159c2.324 4.649 8.488 12.001 13.68 12.001h122.88c5.192 0 11.346-7.352 13.681-12.001l38.307-80.159h-226.856zM326.892 81.428c-13.046 0-23.634 10.578-23.634 23.634s10.578 23.634 23.634 23.634 23.634-10.578 23.634-23.634-10.589-23.634-23.634-23.634zM-163.84 469.76v0 0 0z" />
<glyph unicode="&#xe02b;" d="M255.99 199.619c-55.357 0-102.39-16.097-133.11-41.329v-46.93h266.24v46.93c-30.72 25.231-77.763 41.329-133.13 41.329zM500.429 223.703l-245.084 112.937-244.982-112.937 40.837-18.688v-28.744c-10.24-2.12-10.271-7.485-10.271-13.865 0-3.768 1.249-8.182 3.625-10.824l-14.008-29.982h49.971l-13.885 30.003c2.335 2.642 4.25 6.533 4.25 10.301-0.001 6.37-9.442 12.258-9.442 14.378v23.931l51.2-22.999v2.037c30.72 26.716 84.695 43.674 143.34 43.674 58.664 0 112.66-16.958 143.38-43.674v-2.038l101.069 46.49z" />
<glyph unicode="&#xe02c;" d="M471.040 336.64h-122.88v40.714c0 29.194-18.852 61.686-48.015 61.686h-98.222c-29.195 0-48.323-32.492-48.323-61.686v-40.714h-112.64c-11.264 0-20.48-9.216-20.48-20.48v-296.96c0-11.264 9.216-20.48 20.48-20.48h430.080c11.264 0 20.48 9.216 20.48 20.48v296.96c0 11.264-9.216 20.48-20.48 20.48zM307.2 29.44h-112.64v10.926c0 0.236 6.277 0.543 9.277 0.901s5.632 0.963 7.793 1.802c3.84 1.444 8.141 3.512 9.708 6.205s3.942 6.278 3.942 10.712v104.755c0 4.198-2.54 7.895-4.465 11.069s-5.11 5.734-7.987 7.649c-2.161 1.444-3.676 2.816-8.059 4.137s-10.209 2.172-10.209 2.53v13.138l83.712 4.68-1.792-2.693v-142.92c0-4.198 3.236-7.772 5.038-10.711s5.55-5.13 8.909-6.574c2.396-1.075 4.966-2.038 7.854-2.877s8.919-1.434 8.919-1.803v-10.926zM211.139 272.753c0 9.124 3.512 16.916 10.527 23.398s15.391 9.718 25.108 9.718 18.063-3.236 25.016-9.718 10.445-14.285 10.445-23.398-3.512-16.886-10.527-23.306-15.329-9.626-24.934-9.626c-9.718 0-18.094 3.205-25.108 9.626s-10.527 14.182-10.527 23.306zM317.44 336.64h-133.12v40.714c0 10.926 11.059 30.966 21.985 30.966h82.452c10.906 0 28.683-20.040 28.683-30.966v-40.714z" />
<glyph unicode="&#xe02d;" d="M212.132 234.24h-179.784c-5.243 0-9.554 3.215-9.554 8.346 0 0.85 0.154 1.178 0.328 1.946l9.574 61.501c0.799 4.341 4.7-0.113 9.39-0.113h160.328c4.649 0 8.581 4.219 9.37-0.123l9.585-65.526c0.154-0.788 0.338 1.27 0.338 0.389-0.001-5.089-4.343-6.42-9.575-6.42zM204.933 156.733c-10.107 0-18.34 7.997-18.34 17.92 0 9.871 8.223 17.818 18.34 17.818 10.056 0 18.278-7.946 18.278-17.818 0.001-9.922-8.212-17.92-18.278-17.92zM39.281 156.733c-10.025 0-18.248 7.997-18.248 17.92 0 9.871 8.212 17.818 18.248 17.818 10.168 0 18.371-7.946 18.371-17.818-0.001-9.922-8.203-17.92-18.371-17.92zM61.44 357.12h112.64v-30.72h-112.64c-10.24 0-10.24 30.72 0 30.72zM232.428 329.441c-3.267 15.79-14.459 22.139-30.095 28.498-15.606 6.339-52.562 13.926-79.749 13.926-27.3 0-64.051-7.598-79.657-13.926-15.616-6.359-26.982-12.708-30.249-28.498l-12.678-87.92v-119.921h18.278c0-51.2 34.417-51.2 34.417 0v0h137.636c0-51.2 34.406-51.2 34.406 0v0h21.023v119.921l-13.332 87.92zM-163.84 469.76v0 0 0zM458.332 120.637c0 0.256-0.276 0.666-0.819 1.485 0 0.236 0.154 0.41 0.41 0.563 0.246 0.154 0.41 0.276 0.41 0.563 7.66 3.164 14.633 7.066 20.869 11.684 6.216 4.669 9.503 11.469 11.663 20.47 0.215 1.045 0.655 3.482 0.655 7.199v186.112c0 4.495-0.44 9.155-3.082 13.885-2.662 4.823-5.519 9.134-9.523 12.964-3.963 3.789-9.697 7.014-14.633 9.554-4.27 2.192-13.722 3.359-13.722 3.635v-0.911h-133.12v0.737c-10.24-0.471-7.741-1.536-11.284-3.256-4.915-2.396-10.025-5.448-14.121-9.165-4.096-3.686-8.202-7.875-10.854-12.493-2.653-4.7-4.701-9.236-4.701-13.783v-188.887c0-3.174 1.26-6.492 2.796-9.943 1.618-3.451 3.809-6.676 6.185-9.697 2.376-3.113 5.1-5.888 7.895-8.387 2.775-2.509 5.55-4.577 8.212-6.164 1.28-0.543 3.656-1.362 7.004-2.417 3.256-1.055 4.813-1.638 4.567-2.161l-54.497-82.544h31.805l39.793 61.44h109.793l39.752-61.44h32.215l-53.668 80.957zM366.152 377.6h36.465c8.018 0 14.592-2.212 14.592-10.24 0-8.018-6.574-10.24-14.592-10.24h-36.465c-8.028 0-14.592 2.222-14.592 10.24 0 8.028 6.564 10.24 14.592 10.24zM460.8 283.894c0-16.118-13.056-29.174-29.174-29.174h-105.492c-16.118 0-29.174 13.056-29.174 29.174v23.583c0 16.107 13.056 29.163 29.174 29.163h105.503c16.107 0 29.163-13.056 29.163-29.174v-23.572zM339.21 154.225c-4.106-4.239-9.247-6.349-15.309-6.349-6.113 0-11.090 2.109-14.961 6.349-3.83 4.229-5.755 9.441-5.755 15.544 0 5.56 1.997 10.394 5.99 14.49 3.963 4.116 8.878 6.195 14.725 6.195 6.062 0 11.203-1.966 15.309-5.755 4.106-3.891 6.164-8.94 6.164-15.36 0.002-5.837-2.057-10.885-6.163-15.114zM430.295 154.225c-4.106 4.229-6.185 9.441-6.185 15.544 0 6.113 2.181 11.049 6.574 14.94 4.393 3.779 9.492 5.755 15.34 5.755 6.052 0 11.049-2.079 14.899-6.195 3.83-4.096 5.775-8.929 5.775-14.49 0-6.103-2.007-11.305-5.98-15.544-4.004-4.239-9.021-6.349-15.145-6.349-6.082-0.020-11.182 2.089-15.278 6.339z" />
<glyph unicode="&#xe02e;" d="M356.157 411.761h-71.178c-12.861-0.041-12.38-19.21 0-19.098h71.178v-9.8h-71.178c-12.79 0.113-12.319-19.046 0-19.098h71.178v-10.015l-71.178 0.001c-12.79 0-12.319-19.149 0-19.098h71.178v-9.544l-71.178 0.001c-12.524-0.092-12.319-19.261 0-19.323h71.178v-9.564h-71.178c-12.524 0.041-12.575-19.098 0-19.098h71.178v-9.544h-71.178c-12.524-0.041-12.575-19.2 0-19.108h71.178v-9.779h-71.178c-12.524 0.113-12.575-19.026 0-19.098h71.178v-9.523l-71.178 0.001c-12.524 0.010-12.319-19.169 0-19.108h71.178v-185.948c0.041-28.334 43.080-27.822 43.203 0v435.148c-0.123 12.943-10.752 29.307-28.242 29.358h-86.139c-12.861-0.010-12.38-19.18 0-19.098l71.178-0.236v-9.523l-71.178 0.001c-12.841 0.061-12.36-19.098 0-19.108h71.178v-9.799zM280.084 82.094c-0.040 33.075-34.324 68.649-75.284 45.609v126.505l-26.491 208.64c-0.553 5.519-5.233 6.82-8.376 6.912-3.246-0.092-9.748-1.393-10.455-6.912l-26.358-208.64v-126.505c-40.96 23.040-74.138-12.759-74.148-45.353 0.010-29 22.333-52.818 52.541-52.746 30.433-0.072 52.326 26.624 52.326 52.746l0.001 131.41h10.24v-131.41c0-29.245 22.651-50.893 47.821-52.265-0.42-16.036 4.813-38.912 14.664-47.985 11.551-10.65 25.303 2.97 19.661 14.060-5.448 10.322-10.793 16.435-6.451 38.973 18.144 8.397 30.269 26.071 30.309 46.961zM112.681 56.074c-14.295 0.092-25.846 11.684-25.866 26.020 0.020 14.326 11.571 25.969 25.866 26.051 14.193-0.082 25.754-11.725 25.856-26.051-0.102-14.346-11.663-25.938-25.856-26.020zM200.448 82.094c0.092 14.326 11.633 25.969 25.866 26.051 14.254-0.082 25.815-11.725 25.856-26.051-0.041-14.336-11.592-25.928-25.856-26.020-14.233 0.082-25.784 11.674-25.866 26.020z" />
<glyph unicode="&#xe02f;" d="M253.112-21.76c-118.169 0-214.313 96.143-214.313 214.323 0 75.633 38.666 144.21 103.444 183.429 13.885 8.407 31.928 3.963 40.325-9.902s3.953-31.918-9.902-40.325c-47.053-28.488-75.141-78.295-75.141-133.202 0-85.801 69.796-155.597 155.597-155.597s155.587 69.796 155.587 155.597c0 55.808-30.147 107.674-78.715 135.322-14.1 8.028-19.005 25.948-10.988 40.038 8.028 14.080 25.948 18.995 40.038 10.977 66.867-38.072 108.39-109.486 108.39-186.348-0.009-118.169-96.132-214.312-214.322-214.312zM250.88 195.492c-16.21 0-35.84 13.148-35.84 29.358v211.384c0 16.21 19.63 29.358 35.84 29.358s35.84-13.148 35.84-29.358v-211.384c0-16.21-19.63-29.358-35.84-29.358z" />
<glyph unicode="&#xe030;" d="M365.158 177.521c17.009 28.047 26.952 60.908 26.952 96.102 0 102.697-83.098 185.856-185.815 185.897-102.625-0.031-185.815-83.2-185.815-185.876 0-102.584 83.2-185.743 185.876-185.743 35.226 0 68.045 9.953 96.092 26.962l126.393-126.383 62.679 62.71-126.362 126.331zM206.336 158.669c-63.508 0.154-114.852 51.476-114.964 114.852 0.122 63.508 51.476 114.841 114.964 114.985 63.478-0.164 114.842-51.487 114.975-114.985-0.133-63.304-51.518-114.699-114.975-114.852z" />
<glyph unicode="&#xe031;" d="M365.158 177.521c17.009 28.047 26.952 60.908 26.952 96.102 0 102.697-83.098 185.856-185.815 185.897-102.625-0.031-185.815-83.2-185.815-185.876 0-102.584 83.2-185.743 185.876-185.743 35.226 0 68.045 9.953 96.092 26.962l126.393-126.383 62.679 62.71-126.362 126.331zM206.336 158.669c-63.508 0.154-114.852 51.476-114.964 114.852 0.122 63.508 51.476 114.841 114.964 114.985 63.478-0.164 114.842-51.487 114.975-114.985-0.133-63.304-51.518-114.699-114.975-114.852zM122.88 295.68h163.84v-40.96h-163.84z" />
<glyph unicode="&#xe032;" d="M261.192 248.863c-15.483 0-28.068-12.585-28.068-28.058s12.585-28.058 28.068-28.058c15.473 0 28.068 12.585 28.068 28.058s-12.596 28.058-28.068 28.058zM428.278 438.292c0 11.725-9.503 21.228-21.218 21.228h-303.912c-11.725 0-21.228-9.503-21.228-21.228v-428.605c0-11.715 9.503-21.207 21.228-21.207h303.913c11.725 0 21.217 9.492 21.217 21.207v428.605zM261.192 86.63c-73.984 0-134.175 60.18-134.175 134.175 0 73.974 60.191 134.164 134.175 134.164 73.974 0 134.154-60.191 134.154-134.164-0.010-73.994-60.191-134.175-134.154-134.175z" />
<glyph unicode="&#xe033;" d="M423.987 255.867l-25.18 105.124c-4.413 18.34-22.999 29.86-41.441 25.334-16.22-3.963-24.105-15.196-27.3-23.101-3.779-9.329-20.644-51.599-24.586-60.334-1.382-3.031-4.301-4.628-4.895-4.895-3.348-1.485-36.864-15.626-36.864-15.626v-0.061c-6.615-3.103-11.203-9.718-11.203-17.439 0-10.68 8.745-19.343 19.528-19.343 2.324 0 4.536 0.481 6.615 1.219 0-0.010-0.020-0.041 0-0.072 0.215 0.092 44.493 18.493 44.493 18.493 6.103 2.847 9.083 6.451 12.114 11.704 1.27 2.212 5.13 11.469 8.274 19.067l26.849-112.282c-0.010-62.157-0.031-173.978-0.031-173.978-0.051-17.285 11.889-31.375 29.338-31.437 17.469-0.061 30.095 13.896 30.208 31.212 0 0 0.174 195.656 0.174 205.343-0.020 9.656-3.86 32.603-6.093 41.072zM287.171 430.643c0 0 0 0 0 0 0-21.604 17.673-39.117 39.475-39.117s39.475 17.513 39.475 39.117c0 0 0 0 0 0s0 0 0 0c0 21.603-17.673 39.117-39.475 39.117s-39.475-17.513-39.475-39.117c0 0 0 0 0 0zM175.421 100.076v-43.827c5.683 1.044 10.281 3.645 13.855 7.813 3.543 4.168 5.315 9.042 5.315 14.653 0 5.018-1.485 9.349-4.454 12.995-3.011 3.604-7.916 6.389-14.716 8.366zM148.347 168.141c-2.662-3.584-4.004-7.557-4.004-11.899 0-3.994 1.219-7.66 3.625-11.059 2.437-3.42 6.113-6.185 10.998-8.274v38.881c-4.455-1.495-8.008-4.055-10.619-7.649zM252.488 220.201h0.041l-61.184 122.747-0.010-0.113c-4.495 9.298-14.039 15.718-25.139 15.718h-56.392c-15.391 0.011-27.884-12.359-27.884-27.617v-215.081c0-0.031 0-0.061 0-0.092v-137.523h173.732v228.116c-0.021 4.957-1.157 9.647-3.164 13.845zM209.971 48.486c-8.294-9.288-19.804-14.981-34.519-17.070v-21.023h-16.456v20.46c-13.087 1.567-23.685 6.41-31.877 14.49-8.151 8.1-13.363 19.517-15.626 34.273l29.594 3.164c1.198-6.001 3.461-11.172 6.81-15.534 3.308-4.342 7.014-7.485 11.090-9.431v47.084c-14.807 4.198-25.692 10.557-32.584 19.026-6.932 8.499-10.394 18.811-10.394 30.956 0 12.288 3.901 22.61 11.756 30.976 7.823 8.346 18.227 13.169 31.232 14.428v11.131h16.456v-11.131c12.001-1.413 21.576-5.478 28.682-12.175 7.086-6.687 11.622-15.688 13.599-26.921l-28.682-3.707c-1.751 8.827-6.277 14.838-13.599 17.981v-43.93c18.135-4.884 30.495-11.192 37.079-18.934 6.564-7.762 9.861-17.705 9.861-29.839-0.001-13.558-4.138-24.976-12.422-34.274z" />
<glyph unicode="&#xe034;" d="M475.914 268.421l-0.133 1.034c-0.287 1.444-0.819 2.898-1.3 3.707l-64.881 104.438c0 0-8.274 10.24-10.24 10.24-30.72 0-245.76 0-276.48 0l-83.149-111.135-0.983-1.024-0.133-0.481c-0.655-1.034-1.219-2.202-1.72-3.584l-0.338-0.993c-0.492-1.7-0.717-3.174-0.655-5.386 0.072-1.434 0.328-2.857 0.788-4.342l0.389-1.116c0.522-1.321 1.167-2.529 1.925-3.604l201.431-255.222c1.034-1.331 2.294-2.509 3.83-3.584l1.167-0.727c1.147-0.717 2.345-1.29 4.086-1.925l1.137-0.379c1.966-0.502 3.676-0.738 5.345-0.738 1.69 0 3.338 0.225 5.56 0.799l1.362 0.481c1.331 0.471 2.529 1.055 3.973 1.946l0.901 0.563c1.546 1.096 2.785 2.284 3.471 3.215l201.277 254.904c0.901 1.167 1.659 2.478 2.56 4.803 0.492 1.29 0.707 2.54 0.819 3.287 0.092 0.522 0.154 1.055 0.154 1.321l0.082 1.044c0.001 1.025-0.112 2.049-0.245 2.458zM367.985 275.2l28.652 51.845 28.63-51.845h-57.282zM350.802 244.48h67.973l-113.295-143.514 45.322 143.514zM333.988 290.744l-41.38 56.136h72.397l-31.017-56.136zM201.441 244.48h109.148l-54.589-172.82-54.559 172.82zM212.265 275.2l43.735 59.351 43.735-59.351h-87.47zM181.463 295.393l-18.964 51.487h56.904l-37.94-51.487zM206.541 100.956l-113.306 143.524h67.983l45.323-143.524zM129.69 326.687l18.974-51.487h-56.914l37.94 51.487z" />
<glyph unicode="&#xe035;" d="M-163.84 469.76v0 0 0zM440.32 418.56v40.96h-368.64v-40.96h-71.68v-440.32h40.96v399.36h30.72v-40.96h368.64v40.96h30.72v-399.36h40.96v440.32zM430.612 183.040v0l-66.816 113.92c-2.652 4.925-9.318 8.96-14.807 8.96h-185.989c-5.489 0-12.155-4.035-14.797-8.96l-66.805-113.92c-10.978 0-19.958-9.216-19.958-20.48v-102.4c0-11.264 8.98-20.48 19.958-20.48h21.002v-30.72c0-16.896 12.421-30.72 28.877-30.72h9.984c16.455 0 32.819 13.824 32.819 30.72v30.72h163.84v-30.72c0-16.896 16.353-30.72 32.819-30.72h9.984c16.456 0 28.877 13.824 28.877 30.72v30.72h21.012c10.968 0 19.948 9.216 19.948 20.48v102.4c0 11.264-8.98 20.48-19.948 20.48zM116.316 101.12c-13.773 0-24.945 11.459-24.945 25.6s11.172 25.6 24.945 25.6c13.783 0 24.945-11.459 24.945-25.6s-11.162-25.6-24.945-25.6zM131.277 183.040l45.425 83.005c2.458 5.038 8.96 9.155 14.438 9.155h129.71c5.489 0 11.991-4.116 14.438-9.155l45.435-83.005h-249.446zM395.684 101.12c-13.773 0-24.945 11.459-24.945 25.6s11.172 25.6 24.945 25.6c13.783 0 24.955-11.459 24.955-25.6s-11.182-25.6-24.955-25.6z" />
<glyph unicode="&#xe036;" d="M192 432.64c0-23.328 18.911-42.24 42.24-42.24s42.24 18.912 42.24 42.24c0 23.329-18.911 42.24-42.24 42.24s-42.24-18.911-42.24-42.24zM225.28 377.6h-30.72c-28.877 0-51.2-17.603-51.2-46.971v-127.109c0-20.48 30.72-20.48 30.72 0v122.88h10.24v-327.68c0-12.626 7.864-20.48 20.48-20.48 12.646 0 20.48 7.854 20.48 20.48v378.88zM358.4 224l-41.134 106.056c-3.574 23.767-27.576 47.544-54.968 47.544h-26.778v-243.538c5.12-0.020 10.24-0.768 10.24-2.222v-133.12c0-10.65 9.39-20.48 20.48-20.48 11.121 0 20.48 9.841 20.48 20.48v133.12h39.619c3.707 0 10.691 6.697 10.691 10.24 0 0.819 0.297 9.533 0 10.24l-60.508 166.267c-0.225 0.522-0.348 1.106-0.348 1.71 0 2.427 2.038 4.393 4.577 4.393 2.161 0 3.973-1.444 4.454-3.369l41.134-107.561c2.734-6.154 13.978-10.24 21.371-10.24 9.881 0 10.905 19.405 10.69 20.48z" />
<glyph unicode="&#xe037;" d="M286.556 165.335c-23.050 0-41.759-18.944-41.759-42.342 0-23.388 18.719-42.363 41.759-42.363 23.060 0 41.748 18.975 41.748 42.363 0.011 23.408-18.687 42.342-41.748 42.342zM286.556 100.577c-12.237 0-22.118 10.025-22.118 22.415 0 12.38 9.882 22.456 22.118 22.456 12.196 0 22.129-10.076 22.129-22.456 0.010-12.39-9.923-22.415-22.129-22.415zM459.336 352.061c-14.777 5.1-110.132 15.299-172.903 15.299-62.761 0-163.84-10.332-178.801-14.756-1.546-0.45-46.192-12.759-46.192-61.163v-129.188c0-8.776 3.287-20.173 8.141-20.173h-59.341v-20.48h224.922c0 30.72 23.163 52.449 51.692 52.449 28.57 0 51.722-21.729 51.722-52.449h125.245c20.982 0 37.939 19.415 37.939 40.653v136.059c0 21.248-15.974 44.605-42.424 53.749zM205.169 250.9c0-4.035-2.877-6.42-6.83-6.42h-67.41c-3.984 0-8.049 1.516-8.049 5.55v47.739c0 4.014 4.065 8.151 8.038 8.151h67.41c3.953 0 6.472-4.137 6.472-8.151v-47.739l0.369 0.87zM450.56 250.030c0-4.034-3.174-5.55-7.168-5.55h-149.156c-3.983 0-7.516 1.516-7.516 5.55v47.739c0 4.014 3.533 8.151 7.516 8.151h149.156c4.004 0 7.168-4.137 7.168-8.151v-47.739z" />
<glyph unicode="&#xe038;" d="M307.2 398.080v-337.92h-245.76v337.92h245.76zM348.16 439.040h-327.68v-430.080h327.68v430.080zM92.16 357.12h184.32v-40.96h-184.32zM92.16 285.44h184.32v-40.96h-184.32zM92.16 213.76h184.32v-40.96h-184.32zM92.16 142.080h184.32v-40.96h-184.32zM409.6 357.12h81.92v-286.72h-81.92zM450.621 469.76c-22.466 0-41.021-18.074-41.021-40.315v-41.605h81.92v41.605c0 22.241-18.524 40.315-40.899 40.315zM408.965 39.68l41.38-65.403 41.175 65.403z" />
<glyph unicode="&#xe039;" d="M484.966 328.96c0.819-2.97-0.215-6.246-1.946-8.806l-55.194-82.125c-2.048-3.174-6.349-4.915-9.943-4.915-1.024 0-3.891 0.205-5.007 0.512l-44.236 10.854v-194.56c0-5.939-4.198-10.24-10.24-10.24h-215.040c-6.042 0-10.24 4.301-10.24 10.24v194.56l-39.731-10.957c-4.608-1.434-8.602 0.41-11.162 4.403l-54.784 81.92c-1.741 2.662-2.253 5.632-1.434 8.602 0.717 3.072 2.867 5.12 5.632 6.554l111.719 52.838c10.24 0 51.2 0 51.2 0 6.042 0 10.24-4.198 10.24-10.24 0-21.094 29.594-36.045 50.688-36.045s51.712 14.848 51.712 36.045c0 5.939 4.198 10.24 10.24 10.24 0 0 40.96 0 51.2 0l110.592-51.814c2.867-1.434 4.915-3.994 5.734-7.066z" />
<glyph unicode="&#xe03a;" d="M61.44 367.36v-345.498c0-15.052 12.667-33.382 28.262-33.382h340.152c15.555 0 30.946 18.33 30.946 33.382v345.498h-399.36zM260.71 93.174c-60.006 0-108.657 47.043-108.657 105.093s48.65 105.093 108.657 105.093 108.657-47.043 108.657-105.093c0-58.061-48.65-105.093-108.657-105.093zM429.855 469.76h-340.153c-15.595 0-28.262-10.578-28.262-25.651v-56.269h399.36v56.269c0 15.073-15.391 25.651-30.945 25.651zM194.56 408.32h-112.64v40.96h112.64v-40.96zM390.615 411.187c-12.79 0-23.122 10.025-23.122 22.405 0 12.36 10.332 22.385 23.122 22.385s23.153-10.025 23.153-22.385c-0.011-12.37-10.363-22.405-23.153-22.405z" />
<glyph unicode="&#xe03b;" d="M501.76 372.593c6.185 4.68 10.24 12.012 10.24 20.367 0 14.141-11.459 25.6-25.6 25.6s-25.6-11.459-25.6-25.6c0-8.346 4.055-15.688 10.24-20.367v-158.833h-92.16v-81.92h102.4v3.041c15.002 6.083 25.6 20.726 25.6 37.919 0 7.076-1.956 13.64-5.12 19.446v180.347zM61.44 305.92c10.455 0 17.715-1.761 30.72 0 0 0-41.124-27.3-41.124-61.44h51.364c0 0 0.061 56.873 30.72 92.16l-10.24 10.24c0 0-20.48-10.24-40.96 0 0 0-20.48 0-40.96-10.24v10.24h-10.24v-61.44h10.24c0 0 0 20.48 20.48 20.48zM204.8 305.92c10.455 0 17.715-1.761 30.72 0 0 0-41.124-27.3-41.124-61.44h51.364c0 0 0.061 56.873 30.72 92.16l-10.24 10.24c0 0-20.48-10.24-40.96 0 0 0-20.48 0-40.96-10.24v10.24h-10.24v-61.44h10.24c0 0 0 20.48 20.48 20.48zM389.12 408.32v20.48h-124.109c-4.669 20.5-22.927 35.84-44.851 35.84s-40.182-15.34-44.851-35.84h-124.109v-20.48h-51.2v-419.84h450.56v419.84h-61.44zM163.84 367.36h122.88v-143.36h-122.88v143.36zM20.48 367.36h122.88v-143.36h-122.88v143.36zM389.12 39.68h-337.92v71.68h337.92v-71.68zM430.080 224h-122.88v143.36h122.88v-143.36zM348.16 305.92c10.455 0 17.715-1.761 30.72 0 0 0-41.124-27.3-41.124-61.44h51.364c0 0 0.061 56.873 30.72 92.16l-10.24 10.24c0 0-20.48-10.24-40.96 0 0 0-20.48 0-40.96-10.24v10.24h-10.24v-61.44h10.24c0 0 0 20.48 20.48 20.48z" />
<glyph unicode="&#xe03c;" d="M443.187 337.705l-187.617 132.055-42.24-29.778 0.635-0.492-165.223-117.452-38.502-26.696v-62.495l39.311 26.491v-281.098h412.907l0.001 283.607 39.301-29v62.495l-58.573 42.363zM403.456 38.124h-301.466v259.010l154.184 110.991 147.282-105.994v-264.007zM186.726 267.356c10.977 0 20.050 9.042 20.050 20.347 0 11.284-9.073 20.419-20.050 20.419-11.11 0-20.101-9.144-20.101-20.419 0-11.305 8.991-20.347 20.101-20.347zM159.355 70.676c0-6.277 4.485-12.196 10.68-12.196 6.226 0 10.588 4.495 10.588 10.803v95.242h13.117v-95.242c0-6.298 3.84-11.5 10.035-11.5 6.226 0 10.742 6.615 10.742 12.902l-0.502 167.035h12.472v-66.529c0-6.656 13.107-6.656 13.107 0v65.044c0 13.548-10.547 26.778-26.235 26.778l-53.217 0.123c-14.223 0-25.395-11.858-25.395-26.573v-65.372c0-6.656 13.097-6.656 13.097 0v66.529h11.653l-0.142-167.044zM329.134 267.356c11.018 0 20.101 9.042 20.101 20.347 0 11.284-9.083 20.419-20.101 20.419-11.049 0-20.142-9.144-20.142-20.419 0-11.305 9.083-20.347 20.142-20.347zM301.814 70.676c0-6.277 5.263-12.196 11.459-12.196 6.277 0 11.54 4.495 11.54 10.803v95.242h6.564v-95.242c0-6.298 6.195-11.5 12.431-11.5s11.94 6.615 11.94 12.902l0.696 167.035h7.711v-66.529c0-6.656 19.651-6.656 19.651 0v65.044c0 13.548-11.438 26.778-27.105 26.778l-52.746 0.123c-14.254 0-24.996-11.858-24.996-26.573v-65.372c0-6.656 13.107-6.656 13.107 0v66.529h9.841l-0.093-167.044z" />
<glyph unicode="&#xe03d;" d="M476.109 367.36h-440.054c-14.152 0-25.733-12.872-25.733-25.6s11.581-25.59 25.733-25.59h6.216v-51.2h428.247v51.2h5.591c14.162 0 25.733 12.861 25.733 25.59 0 12.728-11.571 25.6-25.733 25.6zM256.082 290.355c-7.107 0-12.861 5.929-12.861 13.23s5.755 13.23 12.861 13.23c7.117 0 12.861-5.929 12.861-13.23s-5.744-13.23-12.861-13.23zM42.271 162.58h428.247v81.9h-428.247v-81.9zM256.082 217.61c7.117 0 12.861-5.919 12.861-13.22 0-7.311-5.745-13.23-12.861-13.23-7.107 0-12.861 5.919-12.861 13.23-0.011 7.302 5.754 13.22 12.861 13.22zM42.271 91.955v-59.535c0-7.27 0.911-13.23 7.987-13.23h51.446c7.076 0 10.281 5.96 10.281 13.23v37.99h288.819v-37.99c0-7.27 2.58-13.23 9.646-13.23h51.456c7.055 0 8.602 5.96 8.602 13.23v109.66h-428.237v-50.125zM256.082 118.405c7.117 0 12.861-5.929 12.861-13.22 0-7.322-5.745-13.22-12.861-13.22-7.107 0-12.861 5.898-12.861 13.22-0.011 7.281 5.754 13.22 12.861 13.22z" />
<glyph unicode="&#xe03e;" d="M365.158 177.521c17.009 28.047 26.952 60.908 26.952 96.102 0 102.697-83.098 185.856-185.815 185.897-102.625-0.031-185.815-83.2-185.815-185.876 0-102.584 83.2-185.743 185.876-185.743 35.226 0 68.045 9.953 96.092 26.962l126.393-126.383 62.679 62.71-126.362 126.331zM206.336 158.669c-63.508 0.154-114.852 51.476-114.964 114.852 0.122 63.508 51.476 114.841 114.964 114.985 63.478-0.164 114.842-51.487 114.975-114.985-0.133-63.304-51.518-114.699-114.975-114.852zM286.72 295.68h-61.44v61.44h-40.96v-61.44h-61.44v-40.96h61.44v-61.44h40.96v61.44h61.44z" />
<glyph unicode="&#xe03f;" d="M491.52 275.2h-184.32v184.32h-102.4v-184.32h-184.32v-102.4h184.32v-184.32h102.4v184.32h184.32z" />
<glyph unicode="&#xe040;" d="M348.16 367.36v31.089c0 25.405-21.596 50.831-46.991 50.831h-85.432c-25.386 0-51.897-25.426-51.897-50.831v-31.089h-54.395l-58.245-358.4h411.515l-59.167 358.4h-55.388zM194.56 398.449c0 9.513 11.674 20.111 21.176 20.111h85.432c9.493 0 16.272-10.598 16.272-20.111v-31.089h-122.88v31.089z" />
<glyph unicode="&#xe041;" d="M259.43 231.199c0 0-49.551-39.864-49.551-72.090 0-14.428 21.238-28.846 49.551-28.846 28.293 0 49.531 14.418 49.531 28.846 0 33.383-49.531 72.090-49.531 72.090zM440.074 304.067c2.867 35.103 13.046 67.328 30.966 96.86l-68.803 68.833c-21.729-18.719-46.49-29.082-74.547-30.915-25.702-2.324-50.063 2.56-72.97 14.694-23.572-11.735-47.841-16.64-73.144-14.694-26.163 2.345-49.787 11.622-70.932 28.068l-68.998-68.802c16.968-29.962 26.419-61.307 28.273-94.044 0.881-15.073-3.42-35.809-13.066-62.638-5.048-14.868-8.858-27.761-11.469-38.543-2.417-10.701-3.922-19.405-4.413-25.917-0.358-28.57 7.66-54.385 24.095-77.312 12.841-16.742 34.017-35.236 63.427-55.45 32.184-16.384 57.078-27.013 74.516-31.56 4.987-2.335 9.892-4.567 14.459-6.717 4.557-2.171 9.431-4.301 14.51-6.625 10.967-6.564 18.668-13.691 22.743-21.053 4.966 7.956 12.841 14.909 23.327 21.053 7.393 3.226 13.629 6.031 18.657 8.479 5.007 2.222 8.755 3.871 10.916 4.874 3.727 1.853 8.632 3.973 14.531 6.308 5.949 2.345 13.332 5.212 22.118 8.407 16.988 6.011 29.379 11.704 37.222 16.845 28.529 20.214 49.388 38.4 62.648 54.682 17.029 23.020 25.293 48.937 24.914 78.080-1.014 13.046-6.533 33.925-16.558 62.362-9.555 27.697-13.794 49.201-12.422 64.725zM259.43 101.427c-62.536 0-120.32 51.651-120.32 115.354 0 43.264 33.075 84.132 42.465 100.936l28.303-43.264 49.551 72.090 49.531-72.090 28.344 43.264c9.359-16.804 42.465-57.672 42.465-100.936 0.002-63.703-57.793-115.354-120.339-115.354z" />
<glyph unicode="&#xe042;" d="M501.76 250.665l-235.52 111.411v46.244h30.72v20.48h-30.72v40.96h-20.48v-40.96h-30.72v-20.48h30.72v-46.244l-235.52-111.411v-16.425h71.68v-256h122.88v153.6h102.4v-153.6h122.88v256h71.68z" />
<glyph unicode="&#xe043;" d="M257.577 302.367c40.479 0 73.155 32.942 73.155 73.554 0 40.53-32.666 73.359-73.155 73.359-40.428 0-73.247-32.84-73.247-73.359 0-40.602 32.83-73.554 73.247-73.554zM328.755 285.44c33.495 0 47.555-28.611 47.555-28.611l108.104-148.941c4.475-6.646 7.107-14.776 7.107-23.552 0-23.142-18.719-41.953-41.789-41.953-5.519 0-10.865 1.198-15.555 3.021l-65.537 18.166v-64.85h-225.28v64.85l-65.556-18.196c-4.608-1.803-9.913-3.032-15.453-3.032-23.050 0-41.861 18.739-41.861 41.882 0 8.765 2.591 16.763 7.229 23.429l108.032 149.176c0 0 14.049 28.611 47.401 28.611h145.603zM256.061 43.899v0l84.439 28.058-1.833 0.512c-58.419 17.121-36.024 94.495 22.252 77.179l7.721-2.745v87.255l-112.527-37.1-112.753 37.1v-87.255l7.721 2.755c58.245 17.306 80.876-60.058 22.497-77.179l-2.048-0.512 84.531-28.068z" />
<glyph unicode="&#xe044;" d="M261.908 388.475c23.521-1.731 44.093 15.032 45.957 37.356 1.884 22.436-15.667 42.066-39.188 43.796-23.552 1.71-44.124-14.95-45.947-37.386-1.833-22.426 15.729-42.015 39.178-43.766zM438.098 60.16l-14.213 122.88h-23.060c0.215 10.24 0.184 11.377-0.522 17.592-0.686 6.359-2.703 11.008-5.99 12.472 2.693 2.867 4.485 6.513 4.833 10.619 0.522 6.472-2.509 12.524-7.578 16.128l-58.696 38.584-43.213 81.367c-7.158 10.65-19.282 19.241-33.915 20.47-11.244 0.778-21.586-2.939-29.952-8.468l-85.75-66.376c-2.826-2.273-4.946-5.263-5.908-8.858l-19.978-80.394c-0.175-0.767-1.516-1.628-1.516-2.385 0-0.010 0-0.020 0-0.031h-0.164c-3.348 0-6.4-3.195-7.567-7.424-1.127-4.147-2.509-9.626-2.509-14.060 0-3.194 0-9.236 0-9.236h-22.262l-14.213-122.88h57.436l-25.18-40.294c-1.638-3.123-3.564-7.537-3.901-11.796-1.239-15.258 10.639-28.518 26.563-29.737 11.377-0.758 21.166 4.731 27.116 13.496l42.495 68.331h5.56l-0.87 7.547 11.786 18.964c1.28 2.54 5.345 8.755 5.796 11.704l14.397 62.566 61.45-64.236 19.292-96.573c3.082-11.418 12.933-20.838 26.040-21.801 15.944-1.208 29.901 10.045 31.171 25.272 0.113 1.905-0.225 3.338-0.174 5.612l-10.076 50.945h83.272zM112.2 193.382c0.573 4.844 2.386 7.598 5.581 7.598 0.42 0 0.778 0.010 1.198 0.020 3.226-3.901 8.018-6.574 13.548-7.025 6.339-0.492 12.032 2.243 15.903 6.482 0.86-0.727 1.546-1.823 2.017-3.338 0.85-2.939 1.341-6.308 1.341-9.083 0-1.659-0.082-4.997-0.195-4.997h-39.69c-0.133 0.001-0.092 6.585 0.297 10.343zM170.885 183.040h-12.134c0.256 10.24 0.184 11.377-0.481 17.592-0.573 5.325-2.079 9.441-4.465 11.551l15.145 65.966 29.87 23.112-27.935-118.221zM393.687 183.040h-39.721c-0.164 0-0.113 6.584 0.297 10.342 0.532 4.844 2.376 7.598 5.581 7.598 4.598 0 8.765 0.143 12.462 0.225 3.717 0.133 8.786 0.317 15.165 0.317 2.447 0 4.106-1.454 5.028-4.413 0.881-2.939 1.352-6.308 1.352-9.083 0-1.648-0.092-4.986-0.164-4.986zM265.216 206.418l19.251 81.265 16.189-30.546c1.28-2.099 2.796-3.83 4.792-5.458l57.826-37.919h-8.735c-3.348 0-4.577-3.195-5.734-7.424-1.096-4.147-0.645-9.626-0.645-14.060 0-3.194 0-9.236 0-9.236h-25.928l-4.188-36.147-52.828 59.525z" />
<glyph unicode="&#xe045;" d="M471.040 183.040v-204.8h-153.6v40.96h-133.12v-40.96h-143.36v204.8zM378.358 220.365c-5.878 25.692-19.139 48.282-40.038 65.546-20.245 16.824-44.196 20.009-71.978 30.249h-0.102v64.799c0 0.287 2.775 0.512 5.366 1.444 3.676 1.28 7.148 2.755 11.745 4.352 4.516 1.526 8.602 2.806 12.861 3.707 4.178 0.993 7.076 1.413 9.062 1.413 3.86 0 8.745-0.614 14.459-1.864 5.816-1.413 12.012-2.939 18.309-4.669 6.564-1.987 12.421-3.492 18.104-4.772 5.417-1.239 9.953-1.751 13.711-1.751 5.982-0.011 9.023 0.819 19.263 2.641v74.159c-10.24-2.437-12.052-3.779-19.272-3.779-3.758 0-8.407 0.573-13.834 1.946-5.663 1.085-11.5 2.775-18.063 4.68-6.298 1.915-12.247 3.359-17.746 4.567-5.56 1.321-9.175 1.956-13.107 1.956-13.036 0-30.618-3.082-40.858-8.765v13.536h-20.48v-153.6h-0.645c-27.566-10.24-51.702-14.008-71.926-30.833-20.5-17.285-33.812-38.41-40.11-64.113 0 0-19.63 2.785-19.63-17.695h286.413c0 20.481-21.504 16.846-21.504 16.846z" />
<glyph unicode="&#xe046;" d="M483.645 60.16c0 0-74.045 0-166.205 0v-40.96c40.96 0 66.877 0 66.877 0 28.959 0 41.513 0 56.689 0h44.339c13.804 0 16.415 12.032 16.415 12.032v9.933c0 0-0.123 18.995-18.115 18.995zM460.657 68.25c22.671 0 41.103 18.452 41.103 41.185 0 22.804-18.432 41.196-41.103 41.196-22.641 0-41.021-18.401-41.021-41.196-0.001-22.723 18.38-41.185 41.021-41.185zM374.088 70.4c21.565 0 38.912 15.196 38.912 36.731-0.010 21.494-17.418 32.768-38.82 32.932l-56.74-7.189v-62.474h56.648zM189.676 337.326c25.18 0 45.548 20.48 45.548 45.742-0.001 25.262-20.368 45.732-45.548 45.732-25.16 0-45.558-20.47-45.558-45.732s20.398-45.742 45.558-45.742zM143.165 189.297c-0.113 0.215-0.297 0.338-0.41 0.594l-20.644 48.067-0.030-95.878h61.696l13.476 14.336-36.547 14.070c-8.662 3.256-14.817 10.629-17.541 18.811zM156.242 193.608c1.997-4.485 5.693-8.12 10.342-9.789l70.42-26.102c9.011-3.983 19.538 0.154 23.491 9.196 3.953 9.103-0.154 19.702-9.175 23.665l-64.973 24.535-20.070 48.138 13.087 4.874 17.009-41.247 49.387-18.31v50.401l26.214-15.596 13.066-65.823c3.205-9.4 13.353-14.346 22.712-11.1 9.267 3.215 14.193 13.466 11.008 22.825l-14.643 63.396c-0.963 3.553-3 6.656-5.755 8.98-7.506 8.315-45.466 50.76-48.169 53.596-3.962 3.975-13.024 11.153-30.146 11.153h-61.44c-34.918 0-41.636-35.635-34.499-53.76l32.134-79.032zM307.2 131.84h-276.818c-10.076 0-20.142-5.683-20.142-18.186 0-2.898 0-8.202 0-8.202v-86.252c0 0 18.012 0 23.859 0h273.101v112.64z" />
<glyph unicode="&#xe047;" d="M419.84 285.44h-2.785c-0.758 1.311-1.638 2.58-2.724 3.738l-118.211 126.648c0.523 2.529 0.84 5.151 0.84 7.854 0 19.794-14.582 35.84-32.584 35.84-6.943 0-30.3 0-37.243 0-17.991 0-32.573-16.046-32.573-35.84 0-2.703 0.328-5.325 0.84-7.854l-118.211-126.648c-1.075-1.158-1.956-2.427-2.724-3.738h-53.985v-71.68h20.48v-153.6c0-28.283 22.927-51.2 51.2-51.2h327.68c28.283 0 51.2 22.917 51.2 51.2v153.6h20.48v71.68h-71.68zM227.144 387.84c6.943 0 30.3 0 37.243 0 0.573 0 1.096 0.154 1.669 0.184l95.733-102.584h-232.058l95.744 102.584c0.563-0.030 1.095-0.184 1.669-0.184zM133.12 70.4c0-11.264-9.216-20.48-20.48-20.48s-20.48 9.216-20.48 20.48v122.88c0 11.264 9.216 20.48 20.48 20.48s20.48-9.216 20.48-20.48v-122.88zM225.28 70.4c0-11.264-9.216-20.48-20.48-20.48s-20.48 9.216-20.48 20.48v122.88c0 11.264 9.216 20.48 20.48 20.48s20.48-9.216 20.48-20.48v-122.88zM327.68 70.4c0-11.264-9.216-20.48-20.48-20.48s-20.48 9.216-20.48 20.48v122.88c0 11.264 9.216 20.48 20.48 20.48s20.48-9.216 20.48-20.48v-122.88zM419.84 70.4c0-11.264-9.216-20.48-20.48-20.48s-20.48 9.216-20.48 20.48v122.88c0 11.264 9.216 20.48 20.48 20.48s20.48-9.216 20.48-20.48v-122.88z" />
<glyph unicode="&#xe048;" d="M292.669 269.629c0-34.499-28.559-34.499-43.95-34.499h-19.19v65.219h24.115c13.487 0 39.025 0 39.025-30.72zM440.084 304.067c2.847 35.103 13.015 67.318 30.956 96.85l-68.803 68.843c-21.74-18.719-46.479-29.082-74.537-30.915-25.692-2.324-50.084 2.56-72.98 14.684-23.562-11.735-47.831-16.64-73.134-14.684-26.173 2.345-49.787 11.622-70.943 28.068l-68.997-68.813c16.968-29.952 26.419-61.307 28.283-94.034 0.881-15.073-3.42-35.82-13.066-62.638-5.049-14.868-8.868-27.77-11.469-38.543-2.406-10.701-3.912-19.405-4.413-25.917-0.358-28.58 7.66-54.385 24.095-77.312 12.841-16.742 34.017-35.226 63.427-55.45 32.174-16.384 57.078-27.023 74.516-31.549 4.987-2.345 9.892-4.588 14.459-6.717 4.547-2.191 9.421-4.311 14.51-6.625 10.967-6.574 18.678-13.711 22.733-21.064 4.977 7.956 12.851 14.909 23.316 21.064 7.393 3.215 13.65 6.021 18.668 8.479 5.018 2.202 8.755 3.86 10.926 4.874 3.717 1.853 8.602 3.963 14.51 6.298 5.97 2.345 13.332 5.222 22.129 8.397 16.998 6.031 29.368 11.715 37.233 16.855 28.518 20.224 49.367 38.4 62.638 54.671 17.019 23.030 25.283 48.947 24.904 78.090-1.004 13.046-6.523 33.925-16.548 62.372-9.566 27.688-13.805 49.192-12.413 64.716zM313.62 209.756c-16.333-10.691-38.789-10.691-50.514-10.691h-32.205v-88.125h-48.425l0.001 226.058h68.741c31.949 0 58.665-2.058 77.22-24.678 11.581-14.397 13.537-30.751 13.537-42.373-0.020-26.327-10.865-48.548-28.355-60.191z" />
<glyph unicode="&#xe049;" d="M486.451 269.527c-2.375 129.413-77.066 180.838-80.128 182.886l-11.571 7.926-11.633-7.905c-19.343-13.189-39.393-19.886-59.566-19.886-33.475 0-56.156 18.104-57.129 18.883l-13.025 10.506-12.933-10.527c-0.942-0.768-23.654-18.872-57.108-18.872-20.183 0-40.223 6.687-59.587 19.917l-11.592 7.864-11.674-7.926c-7.935-5.478-77.475-57.098-79.994-182.231-1.004-10.885 28.908-216.842 232.97-276.593 221.911 65.168 234.097 262.359 232.97 275.958zM61.604 267.049l0.031-2.918c0.409 23.623 3.706 52.029 10.096 62.269h363.407c6.42-10.24 9.748-38.717 10.117-62.505l0.143 0.102c0.809-6.595-7.311-192-191.918-229.222-165.273 36.475-192.603 226.191-191.876 232.274z" />
<glyph unicode="&#xe04a;" d="M20.48 275.2h471.040v-102.4h-471.040z" />
<glyph unicode="&#xe04b;" d="M332.974-12.616l-72.417 216.136h-235.346l452.587 253.993z" />
<glyph unicode="&#xe04c;" d="M256 480c-84.828 0-153.6-68.157-153.6-152.228 0-84.081 153.6-359.782 153.6-359.782s153.6 275.702 153.6 359.782c0 84.071-68.772 152.228-153.6 152.228zM255.498 282.245c-26.184 0-47.401 21.043-47.401 46.981 0 25.958 21.217 46.991 47.401 46.991 26.204 0 47.421-21.033 47.421-46.991 0.001-25.938-21.217-46.981-47.421-46.981z" />
<glyph unicode="&#xe04d;" d="M441.958 264.96h-22.118v88.392c0 58.142-58.327 116.408-116.47 116.408h-97.085c-58.112 0-114.125-58.266-114.125-116.408v-88.392h-24.474c-6.932 0-16.486-10.875-16.486-16.998v-260.69c0-6.124 9.554-9.032 16.486-9.032h374.272c6.953 0 18.842 2.908 18.842 9.032v260.69c0 6.123-11.889 16.998-18.842 16.998zM304.261 19.2h-98.826l20.736 102.062c-12.534 8.878-20.736 25.61-20.736 42.035 0 27.064 22.129 50.115 49.408 50.115s49.418-21.391 49.418-48.435c0-16.435-8.202-35.113-20.716-44.001l20.716-101.776zM348.16 264.96h-184.32v88.392c0 26.398 17.336 44.728 43.428 44.728h95.119c26.092 0 45.773-18.33 45.773-44.728v-88.392z" />
<glyph unicode="&#xe04e;" d="M439.542 346.88h-50.422v53.514c0 38.257-30.188 69.366-68.547 69.366h-129.136c-38.38 0-68.557-31.109-68.557-69.366v-53.514h-50.432c-34.365 0-62.208-26.532-62.208-60.795v-235.592c0-34.252 27.843-62.013 62.208-62.013h367.094c34.355 0 62.218 27.761 62.218 62.024v235.581c0 34.263-27.863 60.795-62.218 60.795zM163.84 400.394c0 14.326 13.23 28.406 27.597 28.406h129.137c14.325 0 27.586-14.080 27.586-28.406v-53.514h-184.32v53.514zM368.64 121.6h-71.68v-71.68h-81.92v71.68h-71.68v81.92h71.68v71.68h81.92v-71.68h71.68v-81.92z" />
<glyph unicode="&#xe04f;" d="M491.745 207.084c-14.295-66.755-63.406-121.59-128.164-143.114-19.866-6.615-40.448-9.964-61.184-9.964-83.446 0-157.225 53.146-183.603 132.239-16.333 48.957-12.585 101.335 10.547 147.497 23.132 46.152 62.884 80.558 111.923 96.87 46.131 15.319 96.225 12.759 140.39-7.055l9.574 18.053c-64.132 39.619-144.014 49.101-215.837 25.211-64.953-21.596-117.596-67.164-148.235-128.287-30.638-61.133-35.594-130.519-13.967-195.379 34.939-104.765 132.659-175.155 243.169-175.155 27.464 0 54.712 4.434 81.009 13.169 98.028 32.604 166.564 120.115 174.612 222.966l-20.234 2.949zM365.537 330.465l-51.343 96.092-26.112-107.284-106.793-20.992 97.761-55.511-16.814-110.551 83.016 75.51 102.871-49.357-52.542 102.676 83.19 80.302z" />
<glyph unicode="&#xe050;" d="M352.645 300.268c35.82 0 64.983 28.682 64.983 64.215 0 35.522-29.153 64.317-64.983 64.317-35.963 0-65.178-28.795-65.178-64.317 0.001-35.533 29.225-64.215 65.178-64.215zM501.76 143.544v81.306l-87.706 49.326c-14.858 7.455-31.375 9.984-47.882 6.502-6.758-1.382-13.117-3.963-20.265-7.895-0.778-0.215-26.819-11.571-41.953-46.5l-60.396-120.145c0 0-59.505-11.397-84.408-16.148-1.966-1.3-4.076-2.355-6.093-3.594l-15.411 55.101c-6.38 22.405 17.418 54.886 18.309 56.207 15.749 22.784 20.060 52.797 11.786 82.524-7.537 26.88-24.699 49.541-47.043 62.29-17.48 9.82-37.13 12.524-54.968 7.67-13.855-3.758-26.204-11.817-35.748-23.398-0.123-0.113-7.383-10.752-7.383-10.752-12.841-22.354-15.8-50.371-8.376-77.394 7.537-27.136 24.504-49.705 46.961-62.28l5.376-2.816c0.717-0.051 37.704-14.961 44.134-36.352-0.082-0.113 9.708-35.092 17.695-63.601-2.048-0.881-4.014-1.946-6.083-2.765 0.297-0.215 0.85-0.553 1.188-0.788-1.802-2.755-4.966-8.858-4.741-15.104 0-1.987 0.164-3.973 0.543-5.898 3.41-17.664 20.91-29.46 38.789-25.866l114.125 21.955c0 0 9.708 2.918 13.865 5.847 5.356 3.758 9.39 11.643 9.39 11.643l29.993 59.628c0 0 20.675-96.358 21.074-98.14-0.348-0.266-2.028-2.099-4.762-4.905h155.679c-2.345 13.681-3.901 22.456-3.901 22.559 0 0.225-4.905 21.617-4.905 21.617 0.164-0.154-13.353 60.027-23.685 107.131 16.466-9.421 31.386-17.797 32.215-18.248 0.122-0.269 1.894-3.638 4.587-8.717zM109.435 192.963c-11.561-3.072-23.91-1.208-35.748 5.315-16.486 9.216-29.225 26.368-34.683 47.063-5.816 20.623-3.697 41.748 5.693 58.030l5.243 7.557c6.185 7.506 13.681 12.524 22.671 15.012 28.713 7.711 60.334-15.78 70.554-52.47 10.066-36.527-5.007-72.776-33.73-80.507z" />
<glyph unicode="&#xe051;" d="M30.72 418.56h450.56v-51.2h-450.56zM61.44 346.88v-337.92h389.12v337.92h-389.12zM327.68 254.72h-153.6v30.72h153.6v-30.72z" />
<glyph unicode="&#xe052;" d="M432.282 346.88h-58.102l58.46 56.054-57.836 56.586h-81.859l58.644-56.044-60.118-56.596h-69.519l59.781 56.054-59.054 56.586h-83.261l58.644-56.044-60.201-56.596h-58.921l59.812 56.054-59.167 56.586h-59.105v-471.040h471.040v471.040h-57.774l57.774-56.361-59.238-56.279zM430.080 49.92h-348.16v61.44h348.16v-61.44zM430.080 162.56h-348.16v61.44h348.16v-61.44z" />
<glyph unicode="&#xe053;" d="M419.84 336.64h-51.2v113.469c0 10.855-9.165 19.651-20.48 19.651s-20.48-8.796-20.48-19.651v-113.469h-163.84v113.469c0 10.855-9.165 19.651-20.49 19.651-11.315 0-20.47-8.796-20.47-19.651v-113.469h-51.2c-5.663 0-10.24-8.899-10.24-14.326v-49.162c0-58.972 102.4-127.447 102.4-222.167v-31.785h40.96v-40.96h81.92v40.96h40.96v31.785c0 94.72 102.4 163.205 102.4 222.167v49.162c0 5.427-4.577 14.326-10.24 14.326zM234.568 168.827c0.665 2.15-0.686 3.973-3.031 3.973h-39.782c-2.355 0-3.021 1.331-1.526 3.062 0 0 81.971 104.028 83.569 106.035 1.208 1.905 2.54 1.239 2.12-0.952-0.635-2.775-18.135-73.748-18.135-73.748-0.851-2.090 0.378-3.677 2.702-3.677h39.803c2.345 0 3.092-1.577 1.659-3.359 0 0-82.094-106.516-83.569-108.298-1.485-1.782-2.857-1.239-2.109 1.792 0.747 3.041 18.299 75.172 18.299 75.172z" />
<glyph unicode="&#xe054;" d="M87.286 164.659c-20.255 0-36.71-16.558-36.71-36.905-0.001-20.357 16.465-36.874 36.71-36.874 20.296 0 36.762 16.517 36.762 36.884-0.001 20.337-16.456 36.895-36.762 36.895zM87.286 108.739c-10.117 0-18.35 8.264-18.35 18.463 0 10.158 8.233 18.442 18.35 18.442 10.168 0 18.401-8.284 18.401-18.442 0.010-10.2-8.223-18.463-18.401-18.463zM410.286 164.659c-20.285 0-36.731-16.558-36.731-36.905 0-20.357 16.435-36.884 36.731-36.884 20.275 0 36.762 16.517 36.762 36.884 0 20.347-16.476 36.905-36.762 36.905zM410.286 108.739c-10.127 0-18.371 8.264-18.371 18.463 0.010 10.158 8.243 18.442 18.371 18.442 10.158 0 18.401-8.284 18.401-18.442 0-10.2-8.233-18.463-18.401-18.463zM491.592 336.64h-323.031c-5.601 0-10.168-4.567-10.168-10.209v-92.59h-20.347v56.842c0 5.652-4.557 10.209-10.179 10.209h-69.304c-12.083 0-22.876-8.929-24.812-21.709v0.666l-10.813-61.307 0.020-0.215c-7.342-1.249-12.718-7.629-12.718-15.114 0-1.096 0.123-2.222 0.338-3.277l-0.338 0.092 15.258-68.966h15.892v0.625c0 24.719 20.224 44.739 45.158 44.739 24.914 0 45.148-20.019 45.148-44.739v-0.625h232.714v0.625c0 24.719 20.234 44.739 45.128 44.739 24.934 0 45.169-20.019 45.169-44.739 0-0.205 0-0.42-0.041-0.625h47.094v195.369c0 5.632-4.547 10.209-10.168 10.209zM102.431 284.303v-50.463h-61.030l7.629 42.813c0.635 5.12 5.089 8.899 9.533 8.899h43.868v-1.249z" />
<glyph unicode="&#xe055;" d="M256 480c-84.828 0-153.6-68.157-153.6-152.228 0-84.081 153.6-359.782 153.6-359.782s153.6 275.702 153.6 359.782c0 84.071-68.772 152.228-153.6 152.228zM255.498 282.245c-26.184 0-47.401 21.043-47.401 46.981 0 25.958 21.217 46.991 47.401 46.991 26.204 0 47.421-21.033 47.421-46.991 0.001-25.938-21.217-46.981-47.421-46.981z" />
<glyph unicode="&#xe056;" d="M256 469.76c-135.516 0-245.76-110.244-245.76-245.76 0-135.506 110.244-245.76 245.76-245.76 135.506 0 245.76 110.254 245.76 245.76 0 135.516-110.254 245.76-245.76 245.76zM286.72 21.76v89.6h-61.44v-89.6c-88.32 13.384-158.136 83.2-171.52 171.52h89.6v61.44h-89.6c13.384 88.32 83.2 158.136 171.52 171.52v-89.6h61.44v89.6c88.32-13.384 158.136-83.2 171.52-171.52h-89.6v-61.44h89.6c-13.384-88.32-83.2-158.136-171.52-171.52z" />
<glyph unicode="&#xe057;" d="M256-21.76c-135.516 0-245.76 110.254-245.76 245.76 0 135.516 110.244 245.76 245.76 245.76 135.506 0 245.76-110.244 245.76-245.76 0-135.506-110.254-245.76-245.76-245.76zM256 428.8c-112.927 0-204.8-91.873-204.8-204.8s91.873-204.8 204.8-204.8c112.927 0 204.8 91.873 204.8 204.8s-91.873 204.8-204.8 204.8zM256.461 395.52c0 0-72.141-123.607-72.141-161.28 0-3.983 0-16.548 0-20.48 0-37.663 72.356-163.84 72.356-163.84s71.004 123.556 71.004 161.219c0 3.963 0 19.22 0 23.163 0 37.672-71.219 161.218-71.219 161.218zM256 183.040c-22.62 0-40.96 18.34-40.96 40.96s18.34 40.96 40.96 40.96c22.62 0 40.96-18.34 40.96-40.96s-18.34-40.96-40.96-40.96z" />
<glyph unicode="&#xe058;" d="M254.433 200.776c36.321 0 53.156-27.546 56.689-66.683 0.829-9.359-0.010-23.009-1.229-38.82-4.075-52.511-8.765-117.033 26.184-117.033 29.594 0 44.759 56.73 53.545 121.405 8.458 64.020-0.522 95.877 3.912 124.314 8.407 53.862 55.419 102.154 40.899 170.834-8.049 38.103-29.041 56.013-49.807 63.56-47.862 17.418-78.787-16.148-130.191-16.148-51.395 0-82.299 33.567-130.181 16.148-20.756-7.537-41.759-25.457-49.828-63.56-14.49-68.68 32.512-116.961 40.95-170.834 4.393-28.426-4.536-60.293 3.912-124.314 8.763-64.675 23.959-121.405 53.522-121.405 34.929 0 30.269 64.522 26.194 117.033-1.188 15.821-2.089 29.471-1.239 38.83 3.523 39.127 20.603 66.673 56.668 66.673z" />
<glyph unicode="&#xe059;" d="M201.38 345.129h-75.069l-0.001 74.004h20.47v40.387h-136.54v-40.387h20.48v-114.381c0-29.737 24.453-53.832 54.61-53.832h116.050v-20.193h40.97v134.575h-40.97v-20.173zM481.26 176.906v114.381c0 29.727-24.443 53.832-54.569 53.832h-116.071v20.173h-40.97v-134.584h40.97v20.204h75.080v-74.004h-20.449v-40.387l136.509-0.001v40.387l-20.5-0.001zM470.743 25.385c0 20.419-37.253 77.486-37.253 77.486s-37.816-57.068-37.816-77.486c0-20.378 16.814-36.905 37.54-36.905 20.715 0 37.529 16.527 37.529 36.905z" />
<glyph unicode="&#xe05a;" d="M277.668 202.957c-2.355 1.433-1.188 2.754-11.428 3.973v-29.665c0 0.287 4.424 0.635 5.612 1.044 7.598 2.662 11.407 7.629 11.407 14.858 0 4.189-1.874 7.486-5.591 9.79zM231.578 251.361c0-4.557 2.079-7.987 6.216-10.24 1.587-0.891 4.26-1.884 7.956-2.959v28.068c-3.011-0.707-5.652-1.772-7.875-3.226-4.198-2.785-6.297-6.676-6.297-11.643zM256 326.4c-50.903 0-92.16-45.855-92.16-102.4 0-56.535 41.257-102.4 92.16-102.4s92.16 45.865 92.16 102.4c0 56.545-41.257 102.4-92.16 102.4zM295.465 166.103c-6.953-5.939-18.985-9.574-29.225-10.947v-13.076h-20.48v13.312c-10.691 1.454-19.548 3.072-26.501 8.55-9.646 7.598-14.459 19.098-14.459 29.338h25.477c0.829 0 2.447-8.202 4.864-11.1 2.509-2.98 6.072-3.328 10.619-4.588v34.867c-12.462 2.877-21.146 5.98-25.969 9.318-8.612 5.888-12.913 15.114-12.913 27.648 0 11.438 4.209 20.941 12.636 28.508 6.431 5.786 15.196 9.339 26.245 10.711l0.001 17.276h20.48v-17.818c10.24-1.526 17.162-6.277 23.552-11.018 9.615-7.137 16.384-12.124 16.845-32.604h-25.661c-0.481 10.24-5.622 14.664-12.001 17.9-0.339 0.163-2.735 1.976-2.735 2.119v-32.184l9.236-1.782c9.82-2.314 18.903-5.407 23.798-9.267 7.619-6.021 10.568-14.715 10.568-26.081 0.020-11.674-5.366-21.361-14.377-29.082zM440.32 357.12h-440.32v-266.24h512v266.24h-71.68zM491.52 159.785c-23.839-6.584-41.841-24.566-48.425-48.425h-374.19c-6.595 23.839-24.576 41.841-48.425 48.425v128.43c23.849 6.595 41.83 24.576 48.425 48.425h374.426c6.881-23.112 25.078-41.308 48.189-48.189v-128.666z" />
<glyph unicode="&#xe05b;" d="M94.925 285.44h40.1l6.164-184.32h-51.599l5.335 184.32zM61.44 90.88h389.12v-20.48h30.72v-30.72h20.48v-20.48h-491.52v20.48h20.48v30.72h30.72v20.48zM471.040 338.565l-215.020 90.235-215.060-90.235v-12.165h430.080v12.165zM81.92 316.16h348.16v-20.48h-348.16v20.48zM376.177 285.44h40.079l6.216-184.32h-51.671l5.376 184.32zM282.46 285.44h40.079l6.144-184.32h-51.62l5.397 184.32zM188.723 285.44h40.090l6.103-184.32h-51.599l5.406 184.32z" />
<glyph unicode="&#xe05c;" d="M303.278 480h-231.598v-512h112.64v163.84h118.958c127.631 0 177.091 101.079 177.091 184.525 0 83.015-49.46 163.635-177.091 163.635zM272.425 234.24h-88.105v153.6h88.105c52.357 0 99-11.551 99-76.667-0.010-65.515-46.643-76.933-99-76.933zM-163.84 469.76v0 0 0z" />
<glyph unicode="&#xe05d;" d="M185.344 228.68l-94.249 53.145 32.758 57.447 94.269-53.115zM373.453 179.651l-159.253 89.702-16.373-28.754 159.232-89.713zM392.786 168.745l-16.425-28.733 82.125-46.224 16.425 28.703zM370.668 140.012c-1.26-2.243-4.7-2.775-7.69-1.137v0c-2.98 1.679-4.301 4.864-3.031 7.137l19.2 33.638c1.321 2.284 4.762 2.836 7.721 1.137v0c2.939-1.679 4.27-4.936 3-7.219l-19.2-33.556zM491.827 121.59c-3.267 1.802-6.871 2.642-10.353 2.54l-21.002-36.782c1.69-3.082 4.209-5.775 7.526-7.578 9.257-5.243 20.9-2.222 25.989 6.676l5.386 9.523c5.101 8.96 1.742 20.378-7.546 25.621zM227.236 297.226c-2.468-4.465-8.090-5.96-12.544-3.502l-82.493 46.51c-4.465 2.478-5.97 8.059-3.471 12.524v0c2.509 4.383 8.141 5.949 12.595 3.42l82.473-46.449c4.423-2.529 6-8.12 3.44-12.503v0zM238.797 317.42c-2.54-4.454-8.161-5.96-12.564-3.482l-82.524 46.5c-4.434 2.478-5.99 8.069-3.451 12.462v0c2.478 4.454 8.11 6.001 12.595 3.492l82.493-46.459c4.454-2.509 5.97-8.11 3.451-12.513v0zM169.083 195.113c-2.54-4.403-8.161-5.898-12.585-3.42l-82.555 46.51c-4.424 2.458-5.97 8.059-3.461 12.524v0c2.509 4.321 8.212 5.949 12.585 3.42l82.514-46.51c4.434-2.468 5.97-8.070 3.502-12.524v0zM180.613 215.378c-2.509-4.454-8.131-5.949-12.636-3.43l-82.493 46.458c-4.403 2.529-5.97 8.12-3.471 12.524v0c2.55 4.444 8.172 5.949 12.605 3.43l82.483-46.459c4.423-2.519 6.021-8.13 3.512-12.523v0zM42.179 132.649h145.449v-16.722h-145.449zM219.392 97.772c-0.932 5.581-5.755 9.861-11.622 9.861h-185.693c-5.857 0-10.711-4.28-11.622-9.861h-0.215v-27.382h209.367v27.382h-0.215z" />
<glyph unicode="&#xe05e;" d="M419.84 469.76h-327.68c-22.528 0-40.96-18.432-40.96-40.96v-409.6c0-22.528 18.432-40.96 40.96-40.96h327.68c22.528 0 40.96 18.432 40.96 40.96v409.6c0 22.528-18.432 40.96-40.96 40.96zM174.080 60.16c0-11.264-9.216-20.48-20.48-20.48h-40.96c-11.264 0-20.48 9.216-20.48 20.48v10.24c0 11.264 9.216 20.48 20.48 20.48h40.96c11.264 0 20.48-9.216 20.48-20.48v-10.24zM174.080 142.080c0-11.264-9.216-20.48-20.48-20.48h-40.96c-11.264 0-20.48 9.216-20.48 20.48v10.24c0 11.264 9.216 20.48 20.48 20.48h40.96c11.264 0 20.48-9.216 20.48-20.48v-10.24zM174.080 224c0-11.264-9.216-20.48-20.48-20.48h-40.96c-11.264 0-20.48 9.216-20.48 20.48v10.24c0 11.264 9.216 20.48 20.48 20.48h40.96c11.264 0 20.48-9.216 20.48-20.48v-10.24zM296.96 60.16c0-11.264-9.216-20.48-20.48-20.48h-40.96c-11.264 0-20.48 9.216-20.48 20.48v10.24c0 11.264 9.216 20.48 20.48 20.48h40.96c11.264 0 20.48-9.216 20.48-20.48v-10.24zM296.96 142.080c0-11.264-9.216-20.48-20.48-20.48h-40.96c-11.264 0-20.48 9.216-20.48 20.48v10.24c0 11.264 9.216 20.48 20.48 20.48h40.96c11.264 0 20.48-9.216 20.48-20.48v-10.24zM296.96 224c0-11.264-9.216-20.48-20.48-20.48h-40.96c-11.264 0-20.48 9.216-20.48 20.48v10.24c0 11.264 9.216 20.48 20.48 20.48h40.96c11.264 0 20.48-9.216 20.48-20.48v-10.24zM419.84 60.16c0-11.264-9.216-20.48-20.48-20.48h-40.96c-11.264 0-20.48 9.216-20.48 20.48v10.24c0 11.264 9.216 20.48 20.48 20.48h40.96c11.264 0 20.48-9.216 20.48-20.48v-10.24zM419.84 142.080c0-11.264-9.216-20.48-20.48-20.48h-40.96c-11.264 0-20.48 9.216-20.48 20.48v10.24c0 11.264 9.216 20.48 20.48 20.48h40.96c11.264 0 20.48-9.216 20.48-20.48v-10.24zM419.84 224c0-11.264-9.216-20.48-20.48-20.48h-40.96c-11.264 0-20.48 9.216-20.48 20.48v10.24c0 11.264 9.216 20.48 20.48 20.48h40.96c11.264 0 20.48-9.216 20.48-20.48v-10.24zM419.84 316.16c0-11.264-9.216-20.48-20.48-20.48h-286.72c-11.264 0-20.48 9.216-20.48 20.48v81.92c0 11.264 9.216 20.48 20.48 20.48h286.72c11.264 0 20.48-9.216 20.48-20.48v-81.92z" />
<glyph unicode="&#xe05f;" d="M409.6 285.44v-40.96h-296.96v40.96h296.96zM419.84 295.68h-317.44v-61.44h317.44v61.44zM261.755 449.628l-261.755-184.668h61.44v-225.28h40.96v153.6h81.92v-153.6h276.48v225.28h51.2l-250.245 184.668zM430.080 101.12h-194.56v92.16h194.56v-92.16zM430.080 224h-337.92v81.92h337.92v-81.92z" />
<glyph unicode="&#xe060;" d="M512-32l-0.154 256.604c0 141.117-114.545 255.447-255.662 255.447s-255.662-114.412-255.662-255.539l2.058-256.87 58.86 0.143v256.717c0 109.988 84.603 199.137 194.56 199.137 109.978 0 194.56-89.16 194.56-199.148v-256.491h61.44zM339.937 60.918c0 0.276-0.297 0.778-0.942 1.72 0 0.266 0.164 0.461 0.492 0.635 0.266 0.143 0.451 0.307 0.451 0.635 8.806 3.635 16.804 8.090 23.951 13.414 7.148 5.345 11.325 13.169 13.804 23.511 0.276 1.198 1.187 3.984 1.187 8.233v213.535c0 5.151-0.911 10.496-3.963 15.933-3.031 5.53-6.523 10.476-11.162 14.868-4.495 4.352-9.431 7.383-15.073 10.301-5.632 2.889-10.895 3.657-16.087 3.657h-152.801c-4.874 0-10.117-0.686-15.77-3.43-5.642-2.734-10.834-5.908-15.524-10.189-4.7-4.229-8.172-8.858-11.223-14.152-3.010-5.396-4.157-10.424-4.157-15.647v-216.719c0-3.615 0.553-7.455 2.335-11.366 1.833-3.983 3.901-7.7 6.636-11.141 2.744-3.564 5.622-6.769 8.827-9.636 3.195-2.888 6.226-5.243 9.298-7.045 1.485-0.625 4.127-1.577 7.956-2.775 3.779-1.219 5.519-1.946 5.233-2.519l-62.516-94.741h36.465l45.65 61.44h125.972l45.588-61.44h36.925l-61.552 92.918zM204.8 346.88c0 5.632 4.608 10.24 10.24 10.24h81.92c5.632 0 10.24-4.608 10.24-10.24v-10.24c0-5.632-4.608-10.24-10.24-10.24h-81.92c-5.632 0-10.24 4.608-10.24 10.24v10.24zM164.495 296.858c1.362 2.888 2.427 5.509 4.547 7.977 2.161 2.437 4.321 5.939 7.199 7.465 2.877 1.536 5.529 3.86 8.571 3.86h141.895c2.734 0 5.448-2.202 8.202-3.359 2.744-1.229 5.243-3.717 7.547-5.827 2.273-2.12 3.174-4.833 4.588-7.26 1.341-2.375 1.116-5.386 1.116-8.12v-48.374c0-2.765 0.133-5.335-1.362-7.936-1.516-2.662-3.052-4.956-5.509-6.932-2.447-1.935-4.772-2.437-7.506-3.615-2.744-1.29-5.263-0.737-7.967-0.737h-140.093c-0.338 0-1.096-0.952-2.304-0.707-1.208 0.328-2.15 0.092-2.765 0.399-5.151 0.901-8.315 3.369-12.288 7.936-3.942 4.599-4.526 9.288-4.526 14.777v41.513c0 3.041-0.696 6.031 0.655 8.94zM203.274 99.482c-4.7-4.864-10.588-7.291-17.551-7.291-6.994 0-12.708 2.427-17.132 7.291-4.424 4.854-6.615 10.834-6.615 17.807 0 6.39 2.304 11.93 6.851 16.63 4.557 4.731 10.199 7.096 16.896 7.096 6.963 0 12.841-2.243 17.551-6.584 4.721-4.485 7.086-10.26 7.086-17.623 0-6.697-2.365-12.483-7.086-17.326zM307.753 99.482c-4.69 4.854-7.055 10.834-7.055 17.807 0 7.025 2.488 12.667 7.516 17.152 5.048 4.342 10.885 6.584 17.613 6.584 6.943 0 12.657-2.365 17.060-7.096 4.434-4.7 6.646-10.24 6.646-16.63 0-6.984-2.263-12.964-6.871-17.807-4.547-4.864-10.332-7.291-17.336-7.291-6.995-0.010-12.832 2.417-17.573 7.281z" />
<glyph unicode="&#xe061;" d="M122.88 469.76h92.16v-71.68h-92.16zM314.604 174.623c-8.94 0-17.644 9.124-17.644 18.125v184.852h145.275l59.689-254.751-0.164-15.114v-113.213c0-8.704-7.24-16.282-15.862-16.282h-137.431c-8.53 0-10.547 7.578-10.547 16.282v178.278h-20.48zM197.437 174.418c8.868 0 17.603 8.796 17.603 17.859v185.323h-145.183l-59.76-254.894 0.143-15.442v-113.183c0-8.745 7.24-15.841 15.852-15.841h137.267c8.745 0 10.721 7.096 10.721 15.841v178.719h20.48zM235.52 377.6h40.96v-174.080h-40.96zM296.96 469.76h102.4v-71.68h-102.4z" />
<glyph unicode="&#xe062;" d="M261.673 109.599c36.874-172.145 244.931-31.222 38.298 88.689 227.738-132.178 228.28 183.46 0.461 51.384 227.82 132.065-44.206 289.946-44.257 25.692 0.051 264.253-272.015 106.496-44.308-25.692-227.707 132.198-227.973-183.45-0.195-51.364-206.746-119.849 0.84-260.936 37.724-88.443l12.277-0.266zM228.772 223.969c0 15.217 12.268 27.525 27.382 27.525 15.124 0 27.372-12.308 27.372-27.525 0-15.196-12.247-27.525-27.372-27.525-15.104 0.010-27.382 12.329-27.382 27.525z" />
<glyph unicode="&#xe063;" d="M500.675 324.823l-40.295-315.863h-136.1l-40.131 317.44h166.154l32.84 113.428 18.617-5.611-31.508-109.158 30.423-0.236zM264.909 142.080c0 0 5.089 40.96-65.485 40.96h-112.394c-70.472 0-65.485-40.96-65.485-40.96h243.364zM21.545 49.92c0 0-4.987-40.96 65.485-40.96h112.404c70.574 0 65.485 40.96 65.485 40.96h-243.374zM254.351 70.4c11.551 0 20.879 11.407 20.879 25.59 0 14.264-9.329 25.61-20.879 25.61h-223.221c-11.5 0-20.89-11.346-20.89-25.61 0-14.183 9.39-25.59 20.89-25.59h223.221z" />
<glyph unicode="&#xe064;" d="M-163.84 469.76v0 0 0zM481.28 387.84h-153.6c0 0-10.24-81.92 10.24-163.84 8.233-13.722 28.57-21.115 51.2-22.989v-99.891h-3.41l-37.55-30.72h112.64l-36.7 30.72h-4.26v100.639c21.709 2.816 41.605 10.383 51.2 22.241 20.48 71.68 10.24 163.84 10.24 163.84zM471.040 326.4h-133.12v51.2h133.12v-51.2zM220.16 101.12h-56.32v87.040l112.64 168.96h-266.24l112.64-168.96v-87.040h-56.32c-8.489 0-15.36-6.881-15.36-15.36s6.871-15.36 15.36-15.36h153.6c8.489 0 15.36 6.881 15.36 15.36s-6.871 15.36-15.36 15.36z" />
<glyph unicode="&#xe065;" d="M256 469.76l72.52-123.965 142.52-0.031-71.25-121.754 71.25-121.794-142.5-0.020-72.54-123.956-72.53 123.955-142.51 0.021 71.25 121.795-71.25 121.753 142.52 0.031 72.52 123.965zM163.041 223.898l45.968-81.818h93.85l46.090 81.818-46.081 82.022h-93.706l-46.121-82.022zM353.679 142.080h41.38l-20.675 35.359-20.705-35.359zM116.91 142.080h41.39l-20.705 35.369-20.685-35.369zM235.428 346.88h41.39l-20.695 35.348-20.695-35.348zM374.385 270.582l20.674 35.338h-41.38l20.706-35.338zM137.595 270.561l20.695 35.359h-41.39l20.695-35.359zM256.123 65.792l20.695 35.328h-41.4l20.705-35.328z" />
<glyph unicode="&#xe066;" d="M467.958 232.755l-80.794 136.12c-3.215 5.981-10.977 8.725-17.623 8.725h-72.581v61.44c0 11.264-9.216 20.48-20.48 20.48h-51.2c-11.264 0-20.48-9.216-20.48-20.48v-61.44h-61.030c-6.656 0-14.746-2.744-17.961-8.724l-81.111-137.196c-13.323 0-24.218-10.107-24.218-23.777v-124.303c0-13.671 10.895-23.44 24.218-23.44h26.982v-38.707c0-20.521 13.599-32.973 33.577-32.973h12.114c19.978 0 36.229 12.452 36.229 32.973v38.707h204.8v-38.707c0-20.521 17.551-32.973 37.53-32.973h12.124c19.978 0 32.266 12.452 32.266 32.973v38.707h28.293c13.312 0 22.907 9.769 22.907 23.439v124.304c0 13.67-10.24 24.852-23.562 24.852zM87.091 133.325c-16.722 0-30.29 13.906-30.29 31.068 0 17.172 13.558 31.078 30.29 31.078s30.28-13.906 30.28-31.078c0-17.162-13.548-31.068-30.28-31.068zM105.257 234.24l55.132 96.020c2.99 6.124 10.885 6.38 17.541 6.38h157.45c6.656 0 14.551-0.256 17.531-6.38l55.143-96.020h-302.797zM426.209 133.325c-16.712 0-30.28 13.906-30.28 31.068 0 17.172 13.568 31.078 30.28 31.078 16.722 0 30.29-13.906 30.29-31.078 0-17.162-13.568-31.068-30.29-31.068z" />
<glyph unicode="&#xe067;" d="M499.292 395.735c-2.478 11.141-2.632 12.585-27.648 12.585h-25.149l-5.028 13.814c-6.636 20.040-28.938 39.137-51.159 44.708-12.861 3.215-58.675 3.779-170.486 3-140.564-0.983-154.112-1.782-168.018-8.038-31.129-13.988-48.281-49.255-39.086-80.313 6.42-21.647 19.917-37.673 39.086-46.285 13.896-6.246 27.443-6.902 168.008-7.875 111.8-0.788 157.624 0.102 170.476 3.328 22.292 5.581 44.534 25.364 51.231 45.588 5.048 15.206 5.274 15.36 21.76 14.275l16.64-1.096 1.106-52.49 1.096-52.48-48.773-11.52c-26.788-6.339-60.344-14.438-74.547-18.012-14.193-3.564-48.589-11.93-76.431-18.586l-50.627-12.114-0.010-26.583c-0.010-26.419 2.304-26.665-13.476-39.854l-13.457-13.26v-166.287h71.68v166.288l-14.653 13.435c-15.626 13.066-15.34 14.019-14.152 34.12l1.546 20.664 18.063 4.495c9.841 2.488 41.185 10.107 69.581 16.978 28.396 6.851 77.148 18.616 108.288 26.153l56.607 13.68v54.559c0 29.983-1.116 60.938-2.468 67.123zM253.696 22.927c0-8.622-1.628-10.404-10.394-11.315-11.039-1.126-15.811 4.342-13.455 15.401 0.922 4.311 4.721 6.175 12.585 6.175 9.994-0.010 11.264-1.178 11.264-10.261z" />
<glyph unicode="&#xe068;" d="M354.724 92.856c0 0.348-0.399 1.065-1.157 2.212 0 0.328 0.215 0.625 0.584 0.829 0.358 0.215 0.584 0.44 0.584 0.829 10.762 4.444 20.541 9.943 29.297 16.425 8.745 6.554 14.602 16.118 17.623 28.764 0.317 1.495 1.116 4.905 2.202 10.117l-0.002 261.336c0 6.308-1.884 12.851-5.601 19.507-3.717 6.769-8.356 12.82-13.978 18.196-5.56 5.325-11.756 9.841-18.678 13.425-6.922 3.523-13.516 5.264-19.855 5.264h-187.033c-5.97 0-12.411-1.638-19.302-4.987-6.912-3.359-13.251-7.649-18.985-12.872-5.755-5.171-10.516-11.059-14.234-17.541-3.727-6.605-5.601-12.974-5.601-19.354v-265.226c0-4.465 1.178-9.124 3.348-13.957 2.253-4.854 5.038-9.39 8.376-13.629 3.338-4.362 7.014-8.264 10.926-11.776s7.711-6.42 11.448-8.643c1.802-0.758 5.11-1.925 9.8-3.41 4.588-1.475 6.738-2.57 6.39-3.287l-76.554-116.183h44.657l55.88 80.988h154.163l55.818-80.988h45.24l-75.356 113.961zM207.811 447.447c0 1.874 0.891 3.789 2.796 5.888 1.833 2.038 3.686 3.021 5.581 3.021h71.496c0.717 0 2.263-0.717 4.485-2.181 2.202-1.495 3.318-2.98 3.318-4.465v-27.361c0-1.874-0.942-3.594-2.775-5.018-1.884-1.536-3.584-2.314-5.018-2.314h-72.038c-1.167 0.778-1.874 1.331-2.273 1.772-1.075 0.717-2.324 1.7-3.615 3.082-1.311 1.249-1.956 2.621-1.956 4.106l-0.001 23.47zM135.752 370.934c0 3.717 0.881 7.363 2.529 10.916 1.659 3.533 3.82 6.758 6.42 9.779 2.621 2.99 5.693 5.335 9.196 7.209 3.564 1.884 7.219 2.806 10.936 2.806h173.701c3.297 0 6.656-0.778 10.004-2.191 3.359-1.495 6.42-3.584 9.236-6.164 2.807-2.582 5.009-5.449 6.709-8.419 1.659-2.908 2.478-6.103 2.478-9.452v-59.218c0-3.359-0.901-6.533-2.765-9.728-1.864-3.246-4.28-6.052-7.26-8.468-3.021-2.376-6.124-4.342-9.503-5.775-3.338-1.587-6.697-2.253-10.025-2.253h-171.459c-0.41 0-1.341 0.174-2.826 0.502-1.475 0.389-2.621 0.758-3.369 1.157-6.298 1.085-11.868 4.454-16.722 10.056-4.854 5.591-7.281 11.715-7.281 18.401l0.001 50.842zM187.453 140.268c-5.765-5.949-12.984-8.919-21.504-8.919-8.571 0-15.565 2.97-20.992 8.919-5.386 5.939-8.079 13.251-8.079 21.821 0 7.813 2.806 14.582 8.407 20.337 5.571 5.786 12.462 8.714 20.664 8.714 8.52 0 15.729-2.765 21.504-8.079 5.775-5.458 8.653-12.554 8.653-21.555 0-8.203-2.877-15.299-8.653-21.238zM315.341 140.268c-5.755 5.939-8.684 13.251-8.684 21.821 0 8.581 3.062 15.514 9.216 20.972 6.164 5.325 13.322 8.079 21.545 8.079 8.499 0 15.524-2.918 20.92-8.714 5.376-5.755 8.12-12.534 8.12-20.337 0-8.571-2.816-15.882-8.397-21.821-5.622-5.949-12.657-8.919-21.258-8.919-8.539-0.001-15.707 2.969-21.462 8.919z" />
<glyph unicode="&#xe069;" d="M256 260.116c28.713 0 52.818-19.456 59.628-45.763 8.561-32.983 7.404-69.13 45.036-87.9 33.403-11.366 46.039-25.651 46.039-63.949 0-30.566-26.153-63.058-59.873-67.113-37.704-5.663-67.052 1.741-90.839 15.299-23.788-13.558-53.146-20.972-90.798-15.299-33.741 4.055-59.884 36.659-59.884 67.113 0 37.478 13.486 53.34 46.828 64.205 41.032 20.961 35.523 57.702 44.677 89.262 7.402 25.498 31.098 44.145 59.186 44.145v0zM443.976 282.89c-10.168 8.837-51.671-25.661-64.727-42.721-7.936-9.103-12.872-21.617-12.872-35.42 0-27.761 19.866-50.268 44.308-50.268 18.596 0 34.509 12.933 41.093 31.324 12.79 33.075 13.497 78.592-7.802 97.085v0zM68.004 282.89c-21.269-18.493-20.583-64.010-7.772-97.085 6.584-18.391 22.487-31.324 41.073-31.324 24.463 0 44.308 22.508 44.308 50.268 0 13.804-4.925 26.317-12.861 35.42-13.067 17.060-54.559 51.558-64.748 42.721v0zM310.63 464.21c103.301-17.531 96.051-191.508 13.343-177.49-23.859 4.055-41.574 25.784-44.268 51.743-2.733 26.398-8.888 132.485 30.925 125.747v0zM201.37 464.21c39.823 6.748 33.659-99.338 30.925-125.737-2.693-25.969-20.388-47.688-44.247-51.743-82.73-14.039-89.969 159.949 13.322 177.48z" />
<glyph unicode="&#xe06a;" d="M461.844 376.781c5.622 5.622 13.537 11.735 21.617 19.108l7.465 6.257-20.347 22.835-6.646-6.216c-28.119-25.549-45.036-40.991-53.299-72.643-8.202-31.468-8.53-63.324-7.67-93.102 0.901-30.7 2.058-50.954 10.639-73.544l3.236-8.325c8.233-20.716 20.695-52.009 20.695-92.262 0-48.63-19.702-73.298-58.552-73.298-35.348 0-54.415 23.593-56.648 70.205-1.014 20.654 4.782 46.152 10.875 73.093 5.151 22.743 10.455 46.275 13.066 71.25 2.888 27.535-0.727 47.217-11.305 59.034-13.577 15.166-34.477 16.507-52.889 16.507h-5.601v141.937c0 12.288-8.919 21.903-21.135 21.903h-211.364c-12.196 0-23.501-9.615-23.501-21.903v-449.137h256v276.48h5.612c12.595 0 25.641-1.413 30.075-6.359 2.376-2.662 6.021-11.284 3.615-34.54-2.427-23.183-7.567-46.111-12.524-67.953-6.564-29.071-12.79-56.719-11.561-81.644 3.021-63.273 34.857-99.635 87.286-99.635 55.88 0 89.242 38.892 89.242 104.12 0 46.172-14.285 82.145-22.856 103.7l-3.092 7.854c-6.164 16.271-7.547 31.355-8.397 57.672 9.861 0.225 21.801 0.461 27.167 0.461 12.278 0 18.452 7.199 21.084 19.671 1.536 7.27-0.84 16.804-0.84 34.109v4.588c-0.011 45.744-7.005 58.81-19.447 69.777zM245.76 285.44h-194.56v133.12h194.56v-133.12zM450.56 302.377c0-8.94 2.355-17.49 2.058-22.927-6.124-0.092-13.169-0.256-20.337-0.42 0.266 19.753 2.458 39.864 7.506 59.228 1.372 5.161 0.963 9.708 3.031 13.947 5.458-5.253 7.742-13.128 7.742-45.22v-4.608z" />
<glyph unicode="&#xe06b;" d="M258.478 458.609l-248.238-214.129h61.44v-256h368.64v256h61.44l-243.282 214.129zM348.16 172.8h-71.68v-123.781l-0.471 0.901h-48.896l-1.833-0.901v123.781h-61.44v40.96h61.44v92.16h51.2v-92.16h71.68v-40.96z" />
<glyph unicode="&#xe06c;" d="M256 469.76c-101.765 0-184.32-80.988-184.32-180.879v-310.641h368.64v310.641c0 99.891-82.493 180.879-184.32 180.879z" />
</font>
</defs>
</svg>
